<?xml version="1.0" standalone="no"?> <!DOCTYPE svg PUBLIC "-//W3C//DTD SVG 1.0//EN" "http://www.w3.org/TR/2001/REC-SVG-20010904/DTD/svg10.dtd" > <svg xmlns="http://www.w3.org/2000/svg" width="100%" height="100%">
<defs >
<font id="HelveticaNeue-Italic" horiz-adv-x="444" ><font-face
    font-family="Helvetica Neue"
    units-per-em="1000"
    panose-1="0 0 0 0 0 0 0 0 0 0"
    ascent="957"
    descent="-214"
    alphabetic="0" />
<missing-glyph horiz-adv-x="278" />
<glyph unicode=" " glyph-name="space" horiz-adv-x="278" />
<glyph unicode="!" glyph-name="exclam" horiz-adv-x="259" d="M0 0L24 111H135L111 0H0ZM252 714L205 491L115 183H69L112 491L159 714H252Z" />
<glyph unicode="&quot;" glyph-name="quotedbl" horiz-adv-x="426" d="M146 456V714H214V456H146ZM286 456V714H354V456H286Z" />
<glyph unicode="#" glyph-name="numbersign" horiz-adv-x="556" d="M102 0L131 206H34L43 274H140L161 424H60L69 492H171L200 697H269L240 492H362L391 697H460L431 492H522L513 424H422L401 274H494L485 206H392L363 0H294L323 206H200L171 0H102ZM353 424H231L210
274H332L353 424Z" />
<glyph unicode="$" glyph-name="dollar" horiz-adv-x="556" d="M259 418L307 656Q273 656 241 646T182 605T155 529Q155 491 181 464T246 424L259 418ZM293 322L239 58Q260 53 290 59T352 80T404 126T426 197Q426 217 423 232T411 259T397 278T374 293T351 303T322
313T293 322ZM154 -97L172 -12Q78 4 32 67T-10 234H80Q72 89 188 65L242 334Q156 361 111 400T65 519Q65 619 142 680T322 731L335 794H388L374 725Q450 704 495 648T536 503H446Q450 621 359 651L310 405L364 386Q516 343 516 206Q516 130 470 74T358 -4T224 -17L207
-97H154Z" />
<glyph unicode="%" glyph-name="percent" horiz-adv-x="926" d="M147 458Q147 411 165 388T226 364Q267 364 294 399T332 478T342 569Q342 654 269 654Q211 654 179 588T147 458ZM209 -28L644 725H708L273 -28H209ZM513 133Q513 191 531 247T593 345T698 388Q844
388 844 243Q844 182 826 126T764 29T657 -12Q590 -12 552 27T513 133ZM581 137Q581 90 599 67T660 43Q701 43 728 78T766 157T776 248Q776 333 703 333Q645 333 613 267T581 137ZM79 454Q79 512 97 568T159 666T264 709Q410 709 410 564Q410 503 392 447T330 350T223
309Q156 309 118 348T79 454Z" />
<glyph unicode="&amp;" glyph-name="ampersand" horiz-adv-x="630" d="M384 130L257 338Q226 322 204 309T157 274T119 227T106 169Q106 123 142 93T229 63Q274 63 308 79T384 130ZM468 0L424 74Q335 -12 220 -12Q134 -12 78 38T21 173Q21 215 37 250T87 313T148
358T220 398Q201 427 191 445T171 495T161 556Q161 627 211 670T339 714Q406 714 454 679T502 578Q502 542 487 511T443 455T389 413T326 376L438 192Q492 266 501 337H583Q557 220 480 130L565 0H468ZM246 551Q246 506 291 434Q366 477 389 503Q417 533 417 565Q417
598 395 618T338 639Q298 639 272 615T246 551Z" />
<glyph unicode="&apos;" glyph-name="quotesingle" horiz-adv-x="278" d="M142 456V714H210V456H142Z" />
<glyph unicode="(" glyph-name="parenleft" horiz-adv-x="259" d="M172 -198H116Q80 -118 58 -17T35 170Q35 252 54 328T110 475T190 604T293 731H363Q120 441 120 134Q120 -48 172 -198Z" />
<glyph unicode=")" glyph-name="parenright" horiz-adv-x="259" d="M-47 -198H-117Q126 88 126 398Q126 581 74 731H130Q166 648 188 548T211 362Q211 280 192 204T136 58T56 -71T-47 -198Z" />
<glyph unicode="*" glyph-name="asterisk" horiz-adv-x="352" d="M272 714L247 601L357 612L362 564L255 550L304 450L255 427L208 530L130 443L93 480L170 564L75 612L100 658L196 609L218 714H272Z" />
<glyph unicode="+" glyph-name="plus" horiz-adv-x="600" d="M334 506V287H552V219H334V0H266V219H48V287H266V506H334Z" />
<glyph unicode="," glyph-name="comma" horiz-adv-x="278" d="M15 0L39 111H150Q146 94 139 55T127 -4T110 -54T84 -101T44 -130T-16 -147L-6 -99Q19 -95 35 -78T57 -46T71 0H15Z" />
<glyph unicode="-" glyph-name="hyphen" horiz-adv-x="389" d="M26 238L42 318H332L316 238H26Z" />
<glyph unicode="." glyph-name="period" horiz-adv-x="278" d="M15 0L39 111H150L126 0H15Z" />
<glyph unicode="/" glyph-name="slash" horiz-adv-x="333" d="M-18 -17L278 731H351L55 -17H-18Z" />
<glyph unicode="0" glyph-name="zero" horiz-adv-x="556" d="M25 263Q25 328 43 401T96 545T193 662T335 709Q430 709 478 645T526 441Q526 398 517 344T486 226T430 110T343 23T221 -12Q25 -12 25 263ZM115 249Q115 63 230 63Q285 63 328 108T393 217T425 334T436
417Q436 423 436 445T437 477T435 508T431 540T424 569T411 595T391 615T364 629T328 634Q274 634 231 589T164 479T128 353T115 249Z" />
<glyph unicode="1" glyph-name="one" horiz-adv-x="556" d="M433 709L282 0H192L307 539Q223 519 124 519L138 587Q206 587 271 619T367 709H433Z" />
<glyph unicode="2" glyph-name="two" horiz-adv-x="556" d="M158 468H68Q80 580 145 644T323 709Q410 709 466 658T522 520Q522 471 503 429T445 352T374 296T286 242T209 197Q115 137 93 75H462L446 0H-6Q-2 52 16 95T59 167T121 224T191 271T267 316T340 365Q385
399 408 433T432 515Q432 570 400 602T313 634Q245 634 204 586T158 468Z" />
<glyph unicode="3" glyph-name="three" horiz-adv-x="556" d="M214 336L229 404Q425 395 425 536Q425 634 305 634Q179 634 161 490H71Q85 586 144 647T310 709Q406 709 460 665T515 532Q515 473 478 429T388 370Q480 330 480 223Q480 185 464 145T419 69T338
11T224 -12Q116 -12 58 45T1 219H91Q88 152 118 108T226 63Q298 63 344 105T390 219Q390 258 376 282T333 318T279 332T214 336Z" />
<glyph unicode="4" glyph-name="four" horiz-adv-x="556" d="M387 562L94 241H322L389 562H387ZM271 0L307 166H-4L13 250L433 709H505L407 241H501L486 166H392L356 0H271Z" />
<glyph unicode="5" glyph-name="five" horiz-adv-x="556" d="M523 697L508 622H217L161 430L163 428Q212 467 288 467Q381 467 434 407T487 253Q487 131 407 55Q332 -12 220 -12Q122 -12 65 41T7 190H97Q97 63 225 63Q305 63 351 116T397 249Q397 317 361 354T256
392Q218 392 183 374T130 323H54L164 697H523Z" />
<glyph unicode="6" glyph-name="six" horiz-adv-x="556" d="M405 244Q405 306 371 343T275 381Q202 381 161 331T119 206Q119 141 152 102T250 63Q323 63 364 116T405 244ZM545 525H455Q453 634 345 634Q307 634 275 617T224 578T186 517T159 452T138 385H140Q163
420 205 438T295 456Q382 456 438 396T495 248Q495 135 426 62T242 -12Q136 -12 83 53T29 227Q29 385 89 518Q129 612 193 660T359 709Q446 709 494 660T545 525Z" />
<glyph unicode="7" glyph-name="seven" horiz-adv-x="556" d="M576 697L564 626Q447 517 347 343T194 0H97Q205 340 471 622H102L119 697H576Z" />
<glyph unicode="8" glyph-name="eight" horiz-adv-x="556" d="M194 569T194 516T227 437T314 411Q364 411 396 443T429 526Q429 579 399 606T316 634Q262 634 228 602ZM249 63Q317 63 359 102T402 208Q402 266 368 301T271 336Q199 336 156 298T112 190Q112 128
149 96T249 63ZM104 519Q104 608 166 658T320 709Q402 709 460 661T519 533Q519 475 484 431T392 374V372Q442 351 467 307T492 205Q492 110 422 49T255 -12Q155 -12 89 39T22 189Q22 268 68 320T192 386V388Q154 405 129 441T104 519Z" />
<glyph unicode="9" glyph-name="nine" horiz-adv-x="556" d="M274 314Q347 314 388 364T429 489Q429 557 394 595T292 634Q223 634 184 578T144 451Q144 389 178 352T274 314ZM4 169H94Q94 63 197 63Q236 63 268 79T321 118T361 177T389 241T411 307L409 309Q386
274 343 257T253 239Q166 239 110 299T54 447Q54 558 122 633T301 709Q410 709 464 646T519 471Q519 320 460 184Q417 86 358 37T198 -12Q107 -12 55 34T4 169Z" />
<glyph unicode=":" glyph-name="colon" horiz-adv-x="278" d="M15 0L37 111H150L127 0H15ZM234 517L211 406H99L122 517H234Z" />
<glyph unicode=";" glyph-name="semicolon" horiz-adv-x="278" d="M15 0L39 111H150Q146 94 139 55T127 -4T110 -54T84 -101T44 -130T-16 -147L-6 -99Q19 -95 35 -78T57 -46T71 0H15ZM234 517L210 406H99L123 517H234Z" />
<glyph unicode="&lt;" glyph-name="less" horiz-adv-x="600" d="M554 514V446L129 253L554 60V-8L46 222V284L554 514Z" />
<glyph unicode="=" glyph-name="equal" horiz-adv-x="600" d="M552 388V320H48V388H552ZM48 118V186H552V118H48Z" />
<glyph unicode="&gt;" glyph-name="greater" horiz-adv-x="600" d="M46 -8V60L471 253L46 446V514L554 284V222L46 -8Z" />
<glyph unicode="?" glyph-name="question" horiz-adv-x="556" d="M171 488H86Q93 590 160 656T328 722Q411 722 473 679T535 557Q535 509 519 470T477 408T422 360T364 317T314 269T283 205L279 183H196Q211 267 246 312Q274 349 350 402Q445 469 445 542Q445
594 414 620T330 647Q261 647 219 603T171 488ZM145 0L169 111H280L256 0H145Z" />
<glyph unicode="@" glyph-name="at" horiz-adv-x="800" d="M420 505Q354 505 307 437T260 296Q260 254 284 227T346 199Q407 199 454 271T501 412Q501 448 476 476T420 505ZM618 554L534 270Q523 233 523 219Q523 188 547 188Q593 188 639 263T685 418Q685 532
605 604T414 676Q287 676 199 582T110 355Q110 222 201 130T419 38Q490 38 557 71T667 159H730Q682 77 598 30T417 -17Q259 -17 151 92T42 360Q42 514 151 622T413 731Q554 731 653 644T753 423Q753 361 730 305T672 213T596 155T519 133Q492 133 474 149T455 198H452Q395
131 328 131Q265 131 225 176T185 289Q185 399 252 486T420 573Q501 573 532 491L555 554H618Z" />
<glyph unicode="A" glyph-name="A" horiz-adv-x="667" d="M410 630L219 295H465L412 630H410ZM-55 0L375 714H479L608 0H510L477 215H176L51 0H-55Z" />
<glyph unicode="B" glyph-name="B" horiz-adv-x="685" d="M167 327L115 80H345Q369 80 393 84T448 101T498 145T518 221Q518 283 479 305T371 327H167ZM7 0L156 714H443Q642 714 642 543Q642 481 605 431T506 371V369Q556 354 584 316T613 221Q613 121 541 61T360
0H7ZM231 634L183 407H395Q469 407 508 441T547 543Q547 573 535 592T499 620T455 631T407 634H231Z" />
<glyph unicode="C" glyph-name="C" horiz-adv-x="722" d="M565 241H660Q632 118 553 51T344 -17Q198 -17 118 65T38 296Q38 413 84 511T221 670T430 731Q551 731 626 667T702 484H607Q607 566 559 608T430 651Q335 651 266 597T165 465T133 296Q133 189 186 126T344
63Q515 63 565 241Z" />
<glyph unicode="D" glyph-name="D" horiz-adv-x="704" d="M7 0L158 714H408Q540 714 609 642T678 441Q678 240 569 120T281 0H7ZM234 634L117 80H282Q378 80 448 132T551 263T583 431Q583 634 386 634H234Z" />
<glyph unicode="E" glyph-name="E" horiz-adv-x="611" d="M7 0L158 714H650L634 634H237L189 407H559L543 327H172L120 80H522L504 0H7Z" />
<glyph unicode="F" glyph-name="F" horiz-adv-x="574" d="M7 0L156 714H626L609 634H234L187 407H517L500 327H170L102 0H7Z" />
<glyph unicode="G" glyph-name="G" horiz-adv-x="759" d="M563 0L557 71Q518 28 461 6T344 -17Q198 -17 118 65T38 296Q38 413 84 511T221 670T430 731Q556 731 636 671T717 492H622Q622 570 568 610T430 651Q335 651 266 597T165 465T133 296Q133 189 186 126T344
63Q545 63 602 296H374L390 376H701L623 0H563Z" />
<glyph unicode="H" glyph-name="H" horiz-adv-x="722" d="M7 0L157 714H253L188 407H562L626 714H721L571 0H476L545 327H171L102 0H7Z" />
<glyph unicode="I" glyph-name="I" horiz-adv-x="259" d="M7 0L157 714H252L102 0H7Z" />
<glyph unicode="J" glyph-name="J" horiz-adv-x="519" d="M525 714L412 176Q391 78 341 31T189 -17Q100 -17 46 23T-9 135Q-9 185 0 234H96Q87 192 86 160Q86 63 191 63Q225 63 249 76T289 116T311 165T327 225L431 714H525Z" />
<glyph unicode="K" glyph-name="K" horiz-adv-x="667" d="M7 0L158 714H253L178 362L180 360L584 714H711L367 420L596 0H491L296 362L153 241L102 0H7Z" />
<glyph unicode="L" glyph-name="L" horiz-adv-x="556" d="M7 0L157 714H252L120 80H497L480 0H7Z" />
<glyph unicode="M" glyph-name="M" horiz-adv-x="870" d="M7 0L157 714H289L384 100H386L739 714H871L720 0H629L775 625H773L409 0H318L225 625H223L98 0H7Z" />
<glyph unicode="N" glyph-name="N" horiz-adv-x="722" d="M7 0L158 714H260L515 123H517L636 714H728L577 0H475L222 587H220L99 0H7Z" />
<glyph unicode="O" glyph-name="O" horiz-adv-x="759" d="M38 296Q38 413 84 511T221 670T430 731Q566 731 647 641T728 415Q728 302 683 204T548 45T344 -17Q198 -17 118 65T38 296ZM133 296Q133 189 186 126T344 63Q412 63 468 94T560 175T614 288T633 415Q633
518 580 584T430 651Q335 651 266 597T165 465T133 296Z" />
<glyph unicode="P" glyph-name="P" horiz-adv-x="648" d="M7 0L156 714H437Q540 714 594 664T649 517Q649 488 641 459T613 400T563 346T485 307T376 292H164L102 0H7ZM236 634L181 372H396Q471 372 512 412T554 517Q554 579 522 606T437 634H236Z" />
<glyph unicode="Q" glyph-name="Q" horiz-adv-x="759" d="M663 -18L609 -74L510 22Q435 -17 344 -17Q198 -17 118 65T38 296Q38 413 84 511T221 670T430 731Q566 731 647 641T728 415Q728 311 688 219T576 66L663 -18ZM381 146L435 203L514 126Q571 175 602 253T633
415Q633 518 580 584T430 651Q335 651 266 597T165 465T133 296Q133 189 186 126T344 63Q401 63 446 84L381 146Z" />
<glyph unicode="R" glyph-name="R" horiz-adv-x="685" d="M236 634L183 385H397Q450 385 487 399T542 437T566 481T573 526Q573 634 433 634H236ZM7 0L158 714H433Q481 714 521 705T595 676T649 620T668 532Q668 460 623 405T507 340V338Q551 325 568 283T580
183Q579 166 573 124T567 54T581 0H482Q464 51 484 153Q489 181 490 203T487 240T479 268T465 286T449 297T429 303T411 305T392 306T377 305H166L102 0H7Z" />
<glyph unicode="S" glyph-name="S" horiz-adv-x="648" d="M614 503H519Q523 651 355 651Q293 651 242 622T190 534Q190 486 220 460T306 419L402 393Q440 383 467 371T521 336T560 280T574 200Q574 130 531 79T426 6T296 -17Q160 -17 83 45T15 234H110Q106 142
156 103T300 63Q374 63 426 98T479 200Q479 250 447 275T352 318L255 344Q95 387 95 524Q95 621 173 676T355 731Q428 731 486 708T580 632T614 503Z" />
<glyph unicode="T" glyph-name="T" horiz-adv-x="574" d="M653 714L635 634H395L261 0H166L300 634H60L77 714H653Z" />
<glyph unicode="U" glyph-name="U" horiz-adv-x="722" d="M728 714L639 286Q615 178 603 149Q569 64 495 24T325 -17Q169 -17 102 63T66 294L155 714H250L156 270Q132 168 176 116T325 63Q382 63 420 78T482 125T518 193T543 286L633 714H728Z" />
<glyph unicode="V" glyph-name="V" horiz-adv-x="611" d="M691 714L288 0H181L79 714H176L249 93H251L590 714H691Z" />
<glyph unicode="W" glyph-name="W" horiz-adv-x="926" d="M983 714L655 0H556L511 616H509L227 0H125L80 714H174L199 113H201L475 714H583L623 111H625L885 714H983Z" />
<glyph unicode="X" glyph-name="X" horiz-adv-x="611" d="M-44 0L266 373L94 714H196L328 432L557 714H664L370 360L551 0H453L309 302L65 0H-44Z" />
<glyph unicode="Y" glyph-name="Y" horiz-adv-x="611" d="M193 0L254 287L66 714H167L313 368L584 714H694L348 287L286 0H193Z" />
<glyph unicode="Z" glyph-name="Z" horiz-adv-x="611" d="M-38 0L-21 79L515 634H106L126 714H647L630 633L90 80H546L529 0H-38Z" />
<glyph unicode="[" glyph-name="bracketleft" horiz-adv-x="259" d="M-29 -198L163 731H352L338 666H230L66 -133H174L160 -198H-29Z" />
<glyph unicode="\" glyph-name="backslash" horiz-adv-x="333" d="M55 731L351 -17H278L-18 731H55Z" />
<glyph unicode="]" glyph-name="bracketright" horiz-adv-x="259" d="M253 731L61 -198H-128L-114 -133H-6L158 666H50L64 731H253Z" />
<glyph unicode="^" glyph-name="asciicircum" horiz-adv-x="600" d="M50 264L268 697H332L550 264H480L299 624L121 264H50Z" />
<glyph unicode="_" glyph-name="underscore" horiz-adv-x="500" d="M0 -125V-75H500V-125H0Z" />
<glyph unicode="`" glyph-name="grave" horiz-adv-x="222" d="M177 731L244 588H177L76 731H177Z" />
<glyph unicode="a" glyph-name="a" horiz-adv-x="519" d="M75 135Q75 101 102 82T168 63Q269 63 313 131Q323 145 330 163T341 193T350 230T358 264H356Q345 258 332 253T298 244T267 239T226 234T190 229Q136 221 106 201T75 135ZM138 361H53Q65 443 127 486T277
529Q466 529 466 397Q466 378 450 303L417 162Q416 155 412 140T406 112T403 88Q403 56 428 56Q436 56 455 63L442 0Q420 -12 390 -12Q355 -12 337 7T323 61L321 63Q265 -12 148 -12Q78 -12 34 23T-10 134Q-10 165 -1 190T21 231T58 261T99 280T150 292T200 299T251
304Q284 307 300 309T335 316T362 330T375 351T381 386Q381 454 277 454Q223 454 184 431T138 361Z" />
<glyph unicode="b" glyph-name="b" horiz-adv-x="593" d="M454 306Q454 371 424 412T336 454Q293 454 257 438T197 394T157 332T133 262T125 192Q125 132 163 98T266 63Q324 63 368 103T433 198T454 306ZM-5 0L146 714H231L176 453L178 451Q238 529 336 529Q436
529 487 469T539 306Q539 177 465 83T266 -12Q199 -12 150 21T92 96H90L71 0H-5Z" />
<glyph unicode="c" glyph-name="c" horiz-adv-x="537" d="M501 353H416Q416 400 387 427T307 454Q215 454 161 379T106 211Q106 145 136 104T234 63Q287 63 327 91T385 169H470Q448 83 386 36T234 -12Q130 -12 76 46T21 211Q21 342 98 435T307 529Q397 529 447
485T501 353Z" />
<glyph unicode="d" glyph-name="d" horiz-adv-x="593" d="M102 200Q102 63 235 63Q296 63 344 105T414 205T437 320Q437 380 403 417T307 454Q213 454 158 375T102 200ZM606 714L455 0H375L393 74H391Q354 26 314 7T220 -12Q123 -12 70 45T17 200Q17 281 50 355T150
479T304 529Q359 529 405 507T465 438H467L522 714H606Z" />
<glyph unicode="e" glyph-name="e" horiz-adv-x="537" d="M110 308H410Q415 369 385 411T289 454Q156 454 110 308ZM487 233H98Q95 210 95 188Q95 131 134 97T229 63Q341 63 378 162H463Q443 79 380 34T229 -12Q168 -12 123 7T55 59T21 125T10 196Q10 341 88 435T276
529Q495 529 495 300Q495 270 487 233Z" />
<glyph unicode="f" glyph-name="f" horiz-adv-x="296" d="M23 0L119 442H31L46 517H134Q137 529 144 560T155 604T168 641T187 675T213 699T251 717T301 722Q341 722 372 714L358 642Q336 647 318 647Q294 647 278 641T252 619T238 591T228 554T218 517H317L303
442H203L108 0H23Z" />
<glyph unicode="g" glyph-name="g" horiz-adv-x="574" d="M106 210Q106 151 139 111T233 71Q279 71 316 95T375 156T409 236T421 319Q421 382 388 418T289 454Q233 454 190 412T126 316T106 210ZM552 517L459 75Q437 -24 419 -66Q357 -210 184 -210Q97 -210 39
-171T-22 -50H63Q69 -135 193 -135Q231 -135 260 -122T307 -93T339 -44T361 10T378 73L376 75Q323 -4 215 -4Q122 -4 72 55T21 210Q21 288 52 360T147 480T290 529Q348 529 395 500T454 424V422H456L472 517H552Z" />
<glyph unicode="h" glyph-name="h" horiz-adv-x="556" d="M-5 0L146 714H231L170 441L172 439Q204 482 253 505T356 529Q500 529 500 396Q500 362 485 295L422 0H337L403 302Q415 359 415 382Q415 417 390 435T325 454Q253 454 197 394Q160 362 140 286L80 0H-5Z" />
<glyph unicode="i" glyph-name="i" horiz-adv-x="222" d="M-5 0L103 517H188L80 0H-5ZM230 714L208 610H122L144 714H230Z" />
<glyph unicode="j" glyph-name="j" horiz-adv-x="222" d="M-120 -192L-105 -117Q-83 -123 -72 -123Q-45 -123 -34 -103T-10 -26L103 517H188L58 -97Q34 -198 -64 -198Q-98 -198 -120 -192ZM230 714L208 610H122L144 714H230Z" />
<glyph unicode="k" glyph-name="k" horiz-adv-x="481" d="M-5 0L146 714H230L141 294L143 292L403 517H514L289 326L417 0H322L221 275L119 184L80 0H-5Z" />
<glyph unicode="l" glyph-name="l" horiz-adv-x="222" d="M-5 0L145 714H230L80 0H-5Z" />
<glyph unicode="m" glyph-name="m" horiz-adv-x="852" d="M-5 0L105 517H184L165 440L167 438Q241 529 347 529Q456 529 477 436Q507 478 555 503T654 529Q715 529 756 501T798 413Q798 372 783 310L718 0H633L705 328Q713 360 713 384Q713 414 691 434T634 454T564
433T504 383Q473 350 456 267L399 0H314L376 295Q392 366 392 386Q392 418 373 436T320 454Q287 454 252 435T193 388Q168 364 158 340T138 271L80 0H-5Z" />
<glyph unicode="n" glyph-name="n" horiz-adv-x="556" d="M-5 0L104 517H186L170 439H172Q204 482 253 505T356 529Q500 529 500 396Q500 362 485 295L422 0H337L403 302Q415 359 415 382Q415 417 390 435T325 454Q253 454 197 394Q160 362 140 286L80 0H-5Z" />
<glyph unicode="o" glyph-name="o" horiz-adv-x="574" d="M102 205Q102 140 139 102T244 63Q302 63 347 103T414 199T436 308Q436 372 402 413T300 454Q210 454 156 375T102 205ZM17 204Q17 337 96 433T306 529Q410 529 465 474T521 315Q521 181 443 85T235 -12Q135
-12 76 48T17 204Z" />
<glyph unicode="p" glyph-name="p" horiz-adv-x="593" d="M455 317Q455 454 322 454Q261 454 213 412T143 312T120 197Q120 137 154 100T250 63Q344 63 399 142T455 317ZM-49 -198L102 517H182L164 443H166Q203 491 243 510T337 529Q434 529 487 472T540 317Q540
236 507 162T407 38T253 -12Q198 -12 152 10T92 79H90L35 -198H-49Z" />
<glyph unicode="q" glyph-name="q" horiz-adv-x="593" d="M561 517L410 -198H324L380 66H378Q314 -12 215 -12Q117 -12 67 49T17 212Q17 339 92 434T289 529Q419 529 456 435H458L475 517H561ZM102 212Q102 146 134 105T234 63Q298 63 344 107T411 209T431 327T396
420T298 454Q210 454 156 378T102 212Z" />
<glyph unicode="r" glyph-name="r" horiz-adv-x="333" d="M-5 0L103 517H183L158 406H160Q229 529 348 529H378L358 438Q350 439 333 439Q302 439 282 434Q216 417 172 350Q146 313 129 229L80 0H-5Z" />
<glyph unicode="s" glyph-name="s" horiz-adv-x="481" d="M440 365H355Q358 407 327 430T248 454Q138 454 138 388Q138 378 141 370T153 353T169 340T192 327T216 316T245 305T274 293Q338 267 374 235T411 148Q411 68 348 28T200 -12Q103 -12 47 29T-9 163H76Q71
63 208 63Q256 63 291 82T326 142Q326 152 323 161T311 178T295 192T272 205T248 216T219 228T190 240Q126 265 90 296T53 380Q53 448 110 488T245 529Q326 529 383 489T440 365Z" />
<glyph unicode="t" glyph-name="t" horiz-adv-x="315" d="M253 670L221 517H324L308 442H205L141 138Q141 136 140 124T138 104Q138 69 189 69Q209 69 238 78L223 0Q193 -6 163 -6Q47 -6 47 78Q47 94 52 121L120 442H33L49 517H136L168 670H253Z" />
<glyph unicode="u" glyph-name="u" horiz-adv-x="556" d="M520 517L411 0H329L345 78H343Q311 35 262 12T159 -12Q15 -12 15 121Q15 155 30 222L93 517H178L112 215Q100 158 100 135Q100 100 125 82T190 63Q258 63 309 113T375 231L435 517H520Z" />
<glyph unicode="v" glyph-name="v" horiz-adv-x="481" d="M494 517L207 0H116L42 517H132L176 87H178L402 517H494Z" />
<glyph unicode="w" glyph-name="w" horiz-adv-x="759" d="M762 517L495 0H405L379 402H377L192 0H102L41 517H131L163 106H165L351 517H447L472 106H474L670 517H762Z" />
<glyph unicode="x" glyph-name="x" horiz-adv-x="481" d="M-66 0L176 274L61 517H159L237 329L391 517H494L272 267L404 0H307L213 212L37 0H-66Z" />
<glyph unicode="y" glyph-name="y" horiz-adv-x="481" d="M505 517L163 -88Q137 -129 120 -151T70 -191T-4 -210Q-37 -210 -63 -197L-48 -128Q-25 -142 1 -142Q47 -142 81 -86L133 0L42 517H133L193 106H195L412 517H505Z" />
<glyph unicode="z" glyph-name="z" d="M-53 0L-41 64L319 442H41L56 517H449L436 456L73 75H382L368 0H-53Z" />
<glyph unicode="{" glyph-name="braceleft" horiz-adv-x="333" d="M395 731L382 671H332Q284 671 266 583L229 402Q216 341 180 308T114 268L113 265Q135 262 156 239T178 169Q178 159 172 131L135 -50Q132 -66 132 -84Q132 -138 165 -138H215L202 -198H132Q99
-198 73 -174T47 -108Q47 -87 51 -67L89 115Q93 135 93 156Q93 190 75 211T30 232L45 300Q78 300 109 333T152 418L190 600Q202 660 243 695T325 731H395Z" />
<glyph unicode="|" glyph-name="bar" horiz-adv-x="222" d="M77 -214V786H145V-214H77Z" />
<glyph unicode="}" glyph-name="braceright" horiz-adv-x="333" d="M-91 -198L-78 -138H-28Q20 -138 38 -50L75 131Q88 192 124 225T190 265L191 268Q169 271 148 294T126 364Q126 374 132 402L169 583Q172 600 172 617Q172 671 139 671H89L102 731H172Q205 731
231 707T257 641Q257 620 253 600L215 418Q211 398 211 377Q211 342 229 321T274 300L259 232Q226 232 195 199T152 115L114 -67Q102 -127 61 -162T-21 -198H-91Z" />
<glyph unicode="~" glyph-name="asciitilde" horiz-adv-x="600" d="M495 319L531 269Q511 242 498 227T460 198T406 183Q364 183 304 216Q235 255 189 255Q140 255 105 179L69 229Q114 315 194 315Q233 315 305 283Q315 279 339 267T379 249T407 243Q426 243 444
257T470 282T495 319Z" />
</font>
</defs>
</svg>
