<?xml version="1.0" standalone="no"?> <!DOCTYPE svg PUBLIC "-//W3C//DTD SVG 1.0//EN" "http://www.w3.org/TR/2001/REC-SVG-20010904/DTD/svg10.dtd" > <svg xmlns="http://www.w3.org/2000/svg" width="100%" height="100%">
<defs >
<font id="HelveticaNeue-Bold" horiz-adv-x="478" ><font-face
    font-family="Helvetica Neue"
    units-per-em="1000"
    panose-1="2 0 8 3 0 0 0 9 0 4"
    ascent="975"
    descent="-217"
    alphabetic="0" />
<missing-glyph horiz-adv-x="500" d="M58 8H442V504H58V8ZM50 0V512H450V0H50Z" />
<glyph unicode=" " glyph-name="space" horiz-adv-x="278" />
<glyph unicode="!" glyph-name="exclam" horiz-adv-x="278" d="M61 0V154H218V0H61ZM213 714V522L174 214H103L65 522V714H213Z" />
<glyph unicode="&quot;" glyph-name="quotedbl" horiz-adv-x="463" d="M85 393V714H192V393H85ZM271 393V714H378V393H271Z" />
<glyph unicode="#" glyph-name="numbersign" horiz-adv-x="556" d="M339 412H243L225 288H322L339 412ZM88 0L116 198H33V288H128L146 412H63V502H158L186 700H283L255 502H352L379 700H476L449 502H523V412H436L419 288H493V198H406L379 0H282L309 198H213L185 0H88Z" />
<glyph unicode="$" glyph-name="dollar" horiz-adv-x="556" d="M0 232H141Q140 177 170 144T248 100V309Q240 312 216 318Q181 327 157 336T104 361T58 397T28 448T16 517Q16 614 83 669T248 731V808H307V731Q404 720 465 668T532 518H390Q389 558 365 586T307
614V437Q339 429 358 424Q405 411 440 394T497 355T531 314T549 270T555 230T557 192Q557 166 545 136T508 72T430 14T307 -16V-101H248V-16Q19 1 0 232ZM307 292V100Q350 104 382 129T415 198Q415 236 392 256T307 292ZM248 451V614Q211 614 185 593T158 531Q158
498 178 480T248 451Z" />
<glyph unicode="%" glyph-name="percent" horiz-adv-x="1000" d="M693 182Q693 163 693 152T697 122T707 91T726 70T757 61Q823 61 823 181T761 301Q693 301 693 182ZM591 183Q591 269 634 322T761 376Q925 376 925 179Q925 93 883 40T756 -13Q591 -13 591 183ZM254
-21L668 722H753L341 -21H254ZM177 514Q177 496 177 485T181 456T191 427T210 408T241 399Q307 399 307 513Q307 639 245 639Q177 639 177 514ZM75 516Q75 603 118 658T245 714Q332 714 370 659T409 512Q409 426 367 375T240 324Q75 324 75 516Z" />
<glyph unicode="&amp;" glyph-name="ampersand" horiz-adv-x="685" d="M522 0L464 71Q378 -13 263 -13Q163 -13 98 44T32 200Q32 330 192 407Q158 448 141 482T124 559Q124 631 179 676T310 722Q395 722 450 677T506 551Q506 442 379 373L471 260Q490 294 497
345H620Q609 243 551 169L696 0H522ZM389 166L267 315Q224 297 196 267T167 197Q167 159 198 131T269 103Q333 103 389 166ZM382 559Q382 587 363 607T317 627Q290 627 272 609T253 564Q253 555 254 546T260 529T266 514T276 499T286 485T298 471T309 457Q345 480
363 502T382 559Z" />
<glyph unicode="&apos;" glyph-name="quotesingle" horiz-adv-x="278" d="M86 393V714H193V393H86Z" />
<glyph unicode="(" glyph-name="parenleft" horiz-adv-x="296" d="M184 731H303Q194 529 194 278Q194 25 302 -181H184Q52 34 52 268Q52 385 86 512T184 731Z" />
<glyph unicode=")" glyph-name="parenright" horiz-adv-x="296" d="M112 -181H-6Q102 28 102 270Q102 518 -5 731H112Q244 516 244 280Q244 161 210 35T112 -181Z" />
<glyph unicode="*" glyph-name="asterisk" horiz-adv-x="407" d="M242 714V589L358 633L385 556L267 517L341 419L275 370L201 473L131 370L64 419L138 517L22 556L49 633L162 589V714H242Z" />
<glyph unicode="+" glyph-name="plus" horiz-adv-x="600" d="M354 505V306H553V199H354V0H247V199H48V306H247V505H354Z" />
<glyph unicode="," glyph-name="comma" horiz-adv-x="278" d="M61 0V154H218V0Q218 -66 174 -110T62 -165V-93Q93 -87 114 -60T133 0H61Z" />
<glyph unicode="-" glyph-name="hyphen" horiz-adv-x="407" d="M53 212V334H354V212H53Z" />
<glyph unicode="." glyph-name="period" horiz-adv-x="278" d="M60 0V154H217V0H60Z" />
<glyph unicode="/" glyph-name="slash" horiz-adv-x="371" d="M-10 -16L268 731H382L103 -16H-10Z" />
<glyph unicode="0" glyph-name="zero" horiz-adv-x="556" d="M163 353Q163 318 163 296T170 232T187 167T221 123T277 103Q310 103 333 122T368 166T385 232T392 295T393 353Q393 376 393 390T390 432T384 480T372 523T351 561T320 586T277 597Q250 597 229 585T196
549T177 504T167 448T164 398T163 353ZM21 353Q21 545 91 629T277 714Q332 714 377 696T458 637T515 524T535 353Q535 252 515 179T458 65T377 6T277 -13Q161 -13 91 72T21 353Z" />
<glyph unicode="1" glyph-name="one" horiz-adv-x="556" d="M392 700V0H250V454H74V561Q156 559 212 592T279 700H392Z" />
<glyph unicode="2" glyph-name="two" horiz-adv-x="556" d="M173 431H37Q33 555 100 634T291 714Q391 714 461 654T531 495Q531 445 514 404T469 337T406 283T335 235T264 184T204 122H535V0H21Q21 40 28 73T52 136T85 185T132 232T182 271T242 313Q248 317 279
338T321 368T353 398T381 438T389 484Q389 534 360 563T284 592Q226 592 200 545T173 431Z" />
<glyph unicode="3" glyph-name="three" horiz-adv-x="556" d="M228 317V417Q254 415 277 417T324 428T362 456T377 504Q377 547 348 572T278 597Q226 597 198 563T170 472H35Q39 581 104 647T277 714Q368 714 440 661T512 520Q512 468 487 430T414 377V375Q471
362 504 319T538 216Q538 110 462 49T278 -13Q158 -13 87 54T18 241H153Q155 180 186 142T276 103Q325 103 357 133T390 213Q390 239 384 257T363 287T336 304T300 313T265 316T228 317Z" />
<glyph unicode="4" glyph-name="four" horiz-adv-x="556" d="M312 279V522H309L128 279H312ZM312 0V162H16V292L320 700H447V279H540V162H447V0H312Z" />
<glyph unicode="5" glyph-name="five" horiz-adv-x="556" d="M500 700V583H211L183 424L185 422Q239 476 322 476Q422 476 480 408T538 238Q538 130 461 58T278 -13Q169 -13 95 44T18 208H160Q165 160 196 132T275 103Q329 103 362 143T396 238Q396 294 364 331T275
369Q238 369 214 356T168 313H40L109 700H500Z" />
<glyph unicode="6" glyph-name="six" horiz-adv-x="556" d="M286 363Q232 363 203 326T173 233Q173 181 204 142T286 103Q335 103 364 141T393 231Q393 285 366 324T286 363ZM523 520H388Q381 557 356 582T294 607Q247 607 216 568T173 485T160 394L162 392Q216
470 320 470Q365 470 408 451T481 398Q535 335 535 242Q535 132 467 60T290 -13Q229 -13 181 8T104 62T55 144T29 241T21 348Q21 416 36 478T83 595T170 681T296 714Q388 714 449 663T523 520Z" />
<glyph unicode="7" glyph-name="seven" horiz-adv-x="556" d="M517 700V578Q413 488 352 321T288 0H136Q160 312 371 568H39V700H517Z" />
<glyph unicode="8" glyph-name="eight" horiz-adv-x="556" d="M172 510Q172 467 203 443T279 418Q326 418 355 442T384 510Q384 547 361 577T279 607Q234 607 203 581T172 510ZM43 523Q43 612 114 663T279 714Q341 714 388 695T462 645T500 585T513 526Q513 414
411 379V377Q474 363 508 318T542 206Q542 135 503 84T406 10T280 -13Q169 -13 92 42T14 205Q14 272 48 317T146 377V379Q96 393 70 431T43 523ZM156 212Q156 159 192 126T280 93T366 126T400 211Q400 260 366 291T280 323Q226 323 191 294T156 212Z" />
<glyph unicode="9" glyph-name="nine" horiz-adv-x="556" d="M270 337Q324 337 353 374T383 467Q383 519 352 558T270 597Q221 597 192 559T163 469Q163 415 190 376T270 337ZM33 180H168Q175 143 200 118T262 93Q299 93 326 114T367 171T387 239T396 306L394
308Q340 230 236 230Q191 230 148 249T75 302Q21 365 21 458Q21 567 89 640T266 714Q342 714 397 683T480 599T522 485T535 352Q535 284 520 222T473 105T386 19T260 -13Q168 -13 107 38T33 180Z" />
<glyph unicode=":" glyph-name="colon" horiz-adv-x="278" d="M218 508V354H61V508H218ZM61 0V154H218V0H61Z" />
<glyph unicode=";" glyph-name="semicolon" horiz-adv-x="278" d="M218 508V354H61V508H218ZM61 0V154H218V0Q218 -66 174 -110T62 -165V-93Q93 -87 114 -60T133 0H61Z" />
<glyph unicode="&lt;" glyph-name="less" horiz-adv-x="600" d="M554 514V399L187 253L554 107V-7L46 194V312L554 514Z" />
<glyph unicode="=" glyph-name="equal" horiz-adv-x="600" d="M553 199V92H48V199H553ZM553 413V306H48V413H553Z" />
<glyph unicode="&gt;" glyph-name="greater" horiz-adv-x="600" d="M46 -7V107L413 253L46 399V514L554 312V194L46 -7Z" />
<glyph unicode="?" glyph-name="question" horiz-adv-x="556" d="M193 0V154H350V0H193ZM179 484H32Q34 593 100 662T275 731Q342 731 392 712T470 663T511 601T524 538Q524 485 507 448T465 389T413 351T367 309T342 252V214H207V259Q210 307 228 342T270 397T315
434T353 473T367 524Q367 614 282 614Q231 614 205 578T179 484Z" />
<glyph unicode="@" glyph-name="at" horiz-adv-x="800" d="M622 545L559 287Q551 261 551 244Q551 221 568 221Q613 221 649 274T686 405Q686 521 610 586T415 651Q288 651 210 568T132 355Q132 225 214 144T427 63Q560 63 642 145H726Q675 68 595 26T421 -16Q260
-16 148 91T36 357Q36 514 147 622T416 731Q557 731 660 646T764 426Q764 354 737 295T670 204T594 154T529 136Q497 136 478 152T456 193H454Q419 135 346 135Q282 135 236 185T189 306Q189 406 250 483T407 561Q443 561 475 544T524 491L540 545H622ZM291 319Q291
279 312 255T369 230Q420 230 456 278T492 381Q492 417 470 441T415 466Q363 466 327 420T291 319Z" />
<glyph unicode="A" glyph-name="A" horiz-adv-x="685" d="M342 538L249 276H434L344 538H342ZM-6 0L264 714H425L692 0H529L475 159H208L152 0H-6Z" />
<glyph unicode="B" glyph-name="B" horiz-adv-x="704" d="M226 592V425H385Q481 425 481 510Q481 592 373 592H226ZM69 0V714H405Q633 714 633 537Q633 435 536 388Q601 370 634 323T667 207Q667 105 594 53T415 0H69ZM226 318V122H394Q510 122 510 216Q510 318
397 318H226Z" />
<glyph unicode="C" glyph-name="C" horiz-adv-x="741" d="M697 474H545Q537 527 492 563T389 599Q322 599 277 563T214 474T195 354Q195 254 243 185T389 115Q459 115 500 158T551 275H703Q691 140 606 62T389 -16Q228 -16 133 89T38 354Q38 517 133 624T389 731Q510
731 596 663T697 474Z" />
<glyph unicode="D" glyph-name="D" horiz-adv-x="741" d="M226 582V132H366Q442 132 493 184T544 346Q544 461 497 521T338 582H226ZM69 0V714H377Q522 714 611 623T701 361Q701 199 618 100T377 0H69Z" />
<glyph unicode="E" glyph-name="E" horiz-adv-x="648" d="M69 0V714H603V582H226V429H572V307H226V132H611V0H69Z" />
<glyph unicode="F" glyph-name="F" horiz-adv-x="593" d="M69 0V714H571V582H226V417H525V295H226V0H69Z" />
<glyph unicode="G" glyph-name="G" horiz-adv-x="759" d="M601 0L585 81Q510 -16 389 -16Q228 -16 133 89T38 354Q38 517 133 624T389 731Q505 731 591 664T690 479H540Q526 538 487 568T389 599Q322 599 277 563T214 474T195 354Q195 254 243 185T389 115Q545
115 559 269H401V386H701V0H601Z" />
<glyph unicode="H" glyph-name="H" horiz-adv-x="741" d="M69 0V714H226V440H515V714H672V0H515V308H226V0H69Z" />
<glyph unicode="I" glyph-name="I" horiz-adv-x="295" d="M69 0V714H226V0H69Z" />
<glyph unicode="J" glyph-name="J" horiz-adv-x="556" d="M487 714V225Q487 -16 249 -16Q151 -16 83 39T14 204V266H156V234Q156 176 175 146T247 115Q276 115 294 125T320 155T328 191T330 232V714H487Z" />
<glyph unicode="K" glyph-name="K" horiz-adv-x="722" d="M69 0V714H226V418L505 714H701L422 432L728 0H531L316 321L226 230V0H69Z" />
<glyph unicode="L" glyph-name="L" horiz-adv-x="593" d="M69 0V714H226V132H574V0H69Z" />
<glyph unicode="M" glyph-name="M" horiz-adv-x="907" d="M69 0V714H290L457 223H459L617 714H838V0H691V506H689L514 0H393L218 501H216V0H69Z" />
<glyph unicode="N" glyph-name="N" horiz-adv-x="741" d="M69 0V714H225L523 235H525V714H672V0H515L218 478H216V0H69Z" />
<glyph unicode="O" glyph-name="O" horiz-adv-x="778" d="M195 354Q195 254 243 185T389 115T535 184T583 354Q583 420 565 473T501 563T389 599T277 563T214 474T195 354ZM38 354Q38 517 133 624T389 731T645 624T740 354Q740 194 645 89T389 -16T133 89T38 354Z" />
<glyph unicode="P" glyph-name="P" horiz-adv-x="667" d="M226 592V378H348Q412 378 449 400T486 485T449 569T348 592H226ZM69 0V714H391Q516 714 577 648T638 485T577 322T391 256H226V0H69Z" />
<glyph unicode="Q" glyph-name="Q" horiz-adv-x="778" d="M385 186L458 264L539 190Q583 249 583 354Q583 420 565 473T501 563T389 599T277 563T214 474T195 354Q195 254 243 185T389 115Q442 115 452 125L385 186ZM736 10L663 -66L562 25Q491 -16 389 -16Q228
-16 133 89T38 354Q38 517 133 624T389 731T645 624T740 354Q740 196 647 91L736 10Z" />
<glyph unicode="R" glyph-name="R" horiz-adv-x="722" d="M226 592V391H398Q453 391 479 415T506 493Q506 592 398 592H226ZM69 0V714H454Q548 714 605 657T663 517Q663 383 550 338V336Q644 310 654 169Q654 163 655 139T658 101T662 65T670 27T684 0H527Q519
20 515 48T508 115T502 171Q494 229 468 254T383 279H226V0H69Z" />
<glyph unicode="S" glyph-name="S" horiz-adv-x="649" d="M24 237H176Q176 170 220 138T334 105Q367 105 395 111T448 139T473 194Q473 213 464 228T442 252T405 271T363 285T312 298T261 312Q216 323 183 336T116 373T66 432T48 515Q48 618 128 674T315 731Q394
731 456 709T559 634T601 501H449Q443 609 308 609Q265 609 233 589T200 528Q200 488 234 473T413 420Q625 376 625 212Q625 110 548 47T328 -16Q267 -16 213 -1T116 43T48 123T24 237Z" />
<glyph unicode="T" glyph-name="T" horiz-adv-x="611" d="M227 0V582H13V714H598V582H384V0H227Z" />
<glyph unicode="U" glyph-name="U" horiz-adv-x="741" d="M675 714V270Q675 128 596 56T370 -16Q223 -16 145 55T66 270V714H223V270Q223 200 253 158T370 115Q452 115 485 151T518 270V714H675Z" />
<glyph unicode="V" glyph-name="V" horiz-adv-x="630" d="M638 714L401 0H224L-7 714H154L313 212H315L476 714H638Z" />
<glyph unicode="W" glyph-name="W" horiz-adv-x="944" d="M941 714L749 0H593L472 486H470L351 0H192L3 714H160L273 228H275L399 714H546L668 222H670L787 714H941Z" />
<glyph unicode="X" glyph-name="X" horiz-adv-x="667" d="M-5 0L244 374L14 714H196L336 486L481 714H653L424 373L673 0H486L330 247L171 0H-5Z" />
<glyph unicode="Y" glyph-name="Y" horiz-adv-x="667" d="M254 0V278L-8 714H168L335 432L501 714H676L411 274V0H254Z" />
<glyph unicode="Z" glyph-name="Z" horiz-adv-x="648" d="M23 0V124L406 582H53V714H615V590L232 132H625V0H23Z" />
<glyph unicode="[" glyph-name="bracketleft" horiz-adv-x="333" d="M68 -181V731H332V619H210V-69H332V-181H68Z" />
<glyph unicode="\" glyph-name="backslash" horiz-adv-x="371" d="M103 731L382 -16H268L-10 731H103Z" />
<glyph unicode="]" glyph-name="bracketright" horiz-adv-x="333" d="M265 731V-181H1V-69H123V619H1V731H265Z" />
<glyph unicode="^" glyph-name="asciicircum" horiz-adv-x="600" d="M61 315L233 700H367L539 315H422L300 590L178 315H61Z" />
<glyph unicode="_" glyph-name="underscore" horiz-adv-x="500" d="M0 -124V-74H500V-124H0Z" />
<glyph unicode="`" glyph-name="grave" horiz-adv-x="259" d="M109 723L205 581H106L-47 723H109Z" />
<glyph unicode="a" glyph-name="a" horiz-adv-x="574" d="M190 358H48Q54 449 123 490T291 531Q518 531 518 384V115Q518 29 536 0H392Q383 28 382 50Q322 -13 208 -13Q129 -13 81 25T32 141Q32 196 58 231T123 278T207 298T290 308T352 325T376 366Q376 407 352
421T284 436Q197 436 190 358ZM376 200V253Q368 246 353 241T326 233T291 228T258 223Q218 216 196 200T174 147Q174 81 261 81Q376 81 376 200Z" />
<glyph unicode="b" glyph-name="b" horiz-adv-x="611" d="M433 258Q433 329 403 376T312 424T222 377T191 258Q191 188 222 141T312 93T402 140T433 258ZM54 0V714H196V454H198Q249 531 361 531Q447 531 511 461T575 259T511 57T361 -13Q234 -13 191 66H189V0H54Z" />
<glyph unicode="c" glyph-name="c" horiz-adv-x="574" d="M545 335H406Q392 424 301 424Q239 424 210 374T180 256Q180 190 208 142T298 93Q396 93 411 198H548Q534 96 469 42T299 -13Q182 -13 110 60T38 251Q38 375 108 453T302 531Q400 531 469 480T545 335Z" />
<glyph unicode="d" glyph-name="d" horiz-adv-x="611" d="M421 260Q421 331 392 377T299 424Q234 424 204 377T174 259Q174 191 205 142T299 93Q364 93 392 140T421 260ZM423 0V66H421Q374 -13 264 -13Q153 -13 93 67T32 263Q32 375 92 453T261 531Q308 531 349
511T414 454H416V714H558V0H423Z" />
<glyph unicode="e" glyph-name="e" horiz-adv-x="574" d="M171 314H402Q392 370 366 397T289 424Q228 424 201 390T171 314ZM544 224H171Q174 156 205 125T298 93Q339 93 371 113T410 160H535Q479 -13 293 -13Q172 -13 101 61T29 258Q29 376 102 453T293 531Q419
531 486 441T544 224Z" />
<glyph unicode="f" glyph-name="f" horiz-adv-x="333" d="M85 0V422H0V517H85V557Q85 628 129 671T258 714Q272 714 299 712T333 710V604Q308 607 281 607Q252 607 240 594T227 548V517H325V422H227V0H85Z" />
<glyph unicode="g" glyph-name="g" horiz-adv-x="611" d="M295 122Q353 122 384 163T416 265Q416 335 388 379T295 424Q238 424 209 382T180 277Q180 236 190 203T227 146T295 122ZM551 517V33Q551 3 546 -23T525 -83T480 -139T402 -179T283 -195Q197 -195 129
-153T55 -29H196Q213 -100 302 -100Q360 -100 388 -66T416 27V95H414Q392 55 351 35T259 15Q148 15 93 87T38 275Q38 381 97 456T260 531Q366 531 414 448H416V517H551Z" />
<glyph unicode="h" glyph-name="h" horiz-adv-x="593" d="M54 0V714H196V445H199Q225 488 266 509T350 531Q457 531 498 477T539 318V0H397V292Q397 358 377 388T306 419Q248 419 222 384T196 271V0H54Z" />
<glyph unicode="i" glyph-name="i" horiz-adv-x="258" d="M200 714V597H58V714H200ZM58 0V517H200V0H58Z" />
<glyph unicode="j" glyph-name="j" horiz-adv-x="278" d="M209 714V597H67V714H209ZM-18 -177V-60Q-9 -64 12 -64Q67 -64 67 -18V517H209V-25Q209 -108 170 -144T27 -181Q-1 -181 -18 -177Z" />
<glyph unicode="k" glyph-name="k" horiz-adv-x="574" d="M67 0V714H209V331L388 517H556L361 327L578 0H406L264 231L209 178V0H67Z" />
<glyph unicode="l" glyph-name="l" horiz-adv-x="258" d="M58 0V714H200V0H58Z" />
<glyph unicode="m" glyph-name="m" horiz-adv-x="906" d="M58 0V517H192V447H194Q253 531 352 531Q465 531 503 445Q562 531 659 531Q747 531 797 487T848 346V0H706V293Q706 317 705 333T699 367T685 395T660 412T619 419Q524 419 524 288V0H382V290Q382 292
382 297Q382 321 382 333T377 364T364 393T338 411T296 419Q283 419 269 414T238 398T211 361T200 300V0H58Z" />
<glyph unicode="n" glyph-name="n" horiz-adv-x="593" d="M54 0V517H189V445H192Q244 531 350 531Q457 531 498 477T539 318V0H397V292Q397 358 377 388T306 419Q248 419 222 384T196 271V0H54Z" />
<glyph unicode="o" glyph-name="o" horiz-adv-x="611" d="M180 329T180 258T209 140T305 93Q372 93 401 140T431 258T402 376T305 424Q239 424 210 377ZM38 134T38 258T111 456T305 531Q427 531 500 457T573 258T500 61T305 -13T111 60Z" />
<glyph unicode="p" glyph-name="p" horiz-adv-x="611" d="M315 93Q380 93 409 139T438 257Q438 327 408 375T314 424Q249 424 220 376T191 257Q191 187 221 140T315 93ZM54 -181V517H189V451H191Q241 531 345 531Q460 531 520 452T580 253Q580 141 521 64T353
-13Q251 -13 198 64H196V-181H54Z" />
<glyph unicode="q" glyph-name="q" horiz-adv-x="611" d="M174 329T174 258T203 140T297 93Q361 93 391 139T421 256Q421 325 392 374T300 424Q235 424 205 377ZM558 517V-181H416V65H414Q368 -13 251 -13Q213 -13 177 1T107 45T53 129T32 255Q32 370 92 450T264
531Q376 531 421 451H423V517H558Z" />
<glyph unicode="r" glyph-name="r" horiz-adv-x="389" d="M54 0V517H189V421H191Q211 470 257 500T356 531Q369 531 387 526V394Q365 399 336 399Q196 399 196 233V0H54Z" />
<glyph unicode="s" glyph-name="s" horiz-adv-x="537" d="M29 168H164Q164 125 196 103T273 81Q309 81 337 97T366 147Q366 177 329 193T205 227Q168 235 144 244T93 268T54 308T41 365Q41 412 60 446T112 498T183 523T266 531Q361 531 423 493T494 366H359Q354
436 262 436Q183 436 183 388Q183 377 187 369T201 354T221 343T247 334T276 326T310 319T344 311Q421 293 464 262T508 166Q508 117 488 81T434 25T359 -4T272 -13Q207 -13 156 2T68 60T29 168Z" />
<glyph unicode="t" glyph-name="t" horiz-adv-x="352" d="M234 672V517H338V422H234V166Q234 130 246 118T294 106Q321 106 338 110V0Q308 -5 255 -5Q178 -5 135 20T92 117V422H6V517H92V672H234Z" />
<glyph unicode="u" glyph-name="u" horiz-adv-x="593" d="M539 517V0H404V72H401Q350 -13 243 -13T95 40T54 199V517H196V225Q196 159 216 129T287 98Q345 98 371 133T397 246V517H539Z" />
<glyph unicode="v" glyph-name="v" horiz-adv-x="520" d="M515 517L340 0H182L5 517H154L263 164H265L374 517H515Z" />
<glyph unicode="w" glyph-name="w" horiz-adv-x="814" d="M808 517L645 0H499L407 347H405L317 0H170L6 517H156L251 166H253L339 517H477L565 167H567L662 517H808Z" />
<glyph unicode="x" glyph-name="x" horiz-adv-x="537" d="M0 0L186 272L16 517H178L269 382L359 517H516L346 275L537 0H375L267 163L159 0H0Z" />
<glyph unicode="y" glyph-name="y" horiz-adv-x="519" d="M525 517L309 -64Q286 -127 245 -154T131 -181Q92 -181 44 -176V-59Q98 -65 127 -64Q153 -61 167 -43T182 0Q182 17 176 32L-5 517H146L263 163H265L378 517H525Z" />
<glyph unicode="z" glyph-name="z" horiz-adv-x="519" d="M22 0V107L291 410H42V517H478V410L209 107H497V0H22Z" />
<glyph unicode="{" glyph-name="braceleft" horiz-adv-x="333" d="M333 731V619H279Q225 619 225 546V394Q225 360 214 336T186 299T154 282T126 276V273Q159 270 192 244T225 163V3Q225 -69 279 -69H333V-181H206Q165 -181 124 -145T83 -46V148Q83 189 53 210T-8
231V318Q22 318 52 340T83 408V596Q83 658 124 694T206 731H333Z" />
<glyph unicode="|" glyph-name="bar" horiz-adv-x="223" d="M58 -213V786H165V-213H58Z" />
<glyph unicode="}" glyph-name="braceright" horiz-adv-x="333" d="M0 -181V-69H54Q108 -69 108 3V163Q108 218 141 244T207 273V276Q193 277 179 282T148 299T119 335T108 394V546Q108 619 54 619H0V731H127Q168 731 209 695T250 596V408Q250 363 280 341T342
318V231Q311 231 281 210T250 148V-46Q250 -108 209 -144T127 -181H0Z" />
<glyph unicode="~" glyph-name="asciitilde" horiz-adv-x="600" d="M493 344L533 251Q506 210 478 188T408 165Q363 165 306 198Q247 233 191 233Q140 233 107 161L67 254Q109 340 192 340Q230 340 303 308Q310 305 324 299T347 289T367 281T388 274T405 272Q424
272 442 285T467 308T493 344Z" />
</font>
</defs>
</svg>
