<?xml version="1.0" standalone="no"?> <!DOCTYPE svg PUBLIC "-//W3C//DTD SVG 1.0//EN" "http://www.w3.org/TR/2001/REC-SVG-20010904/DTD/svg10.dtd" > <svg xmlns="http://www.w3.org/2000/svg" width="100%" height="100%">
<defs >
<font id="HelveticaNeue-BoldItalic" horiz-adv-x="479" ><font-face
    font-family="Helvetica Neue"
    units-per-em="1000"
    panose-1="2 0 8 3 0 0 0 9 0 4"
    ascent="975"
    descent="-217"
    alphabetic="0" />
<missing-glyph horiz-adv-x="500" d="M58 8H442V504H58V8ZM50 0V512H450V0H50Z" />
<glyph unicode=" " glyph-name="space" horiz-adv-x="278" />
<glyph unicode="!" glyph-name="exclam" horiz-adv-x="296" d="M301 714L259 520L154 214H84L109 520L150 714H301ZM-3 0L29 154H187L154 0H-3Z" />
<glyph unicode="&quot;" glyph-name="quotedbl" horiz-adv-x="481" d="M127 393V714H234V393H127ZM313 393V714H420V393H313Z" />
<glyph unicode="#" glyph-name="numbersign" horiz-adv-x="556" d="M332 412H236L218 288H315L332 412ZM81 0L109 198H26L36 288H121L139 412H56L66 502H151L179 700H276L248 502H345L372 700H469L442 502H526L516 412H429L412 288H496L486 198H399L372 0H275L302
198H206L178 0H81Z" />
<glyph unicode="$" glyph-name="dollar" horiz-adv-x="556" d="M186 -103L204 -13Q103 -2 54 59T6 240H143Q139 120 226 105L266 311L255 315Q217 328 197 336T149 361T108 397T84 446T73 515Q73 621 151 676T343 731H346L362 810H410L393 724Q474 707 522 652T563
506H426Q430 579 369 605L336 428Q374 416 396 408T447 383T491 347T517 296T528 223Q528 161 504 114T440 39T352 -2T252 -16L235 -103H186ZM291 444L323 614H316Q276 614 243 591T210 526Q210 471 291 444ZM312 296L274 100Q320 100 355 126T391 204Q391 229
378 248T350 277T312 296Z" />
<glyph unicode="%" glyph-name="percent" horiz-adv-x="963" d="M542 144Q542 239 592 307T735 376Q811 376 852 338T893 224Q893 126 838 57T689 -13Q618 -13 580 30T542 144ZM644 126Q644 61 696 61Q729 61 752 96T783 171T791 245Q791 268 778 284T743 301Q716
301 696 283T665 236T649 179T644 126ZM175 -21L713 722H798L261 -21H175ZM175 464Q175 399 227 399Q260 399 283 434T314 509T322 583Q322 606 309 622T274 639Q247 639 227 621T196 574T180 517T175 464ZM73 482Q73 577 123 645T266 714Q342 714 383 676T424
562Q424 464 369 394T220 324Q149 324 111 367T73 482Z" />
<glyph unicode="&amp;" glyph-name="ampersand" horiz-adv-x="685" d="M288 554Q288 516 326 454Q365 472 396 499T428 559Q428 589 410 608T365 627Q333 627 311 608T288 554ZM459 0L427 56Q341 -13 235 -13Q144 -13 80 40T16 183Q16 334 209 410Q161 491 161
536Q161 622 215 672T358 722Q437 722 491 680T545 560Q545 495 500 450T381 366L458 242Q495 280 510 343H637Q613 218 524 140L615 0H459ZM365 156L267 315Q265 314 247 304T225 291T207 280T188 265T175 250T162 231T156 210T153 183Q153 148 181 126T247 103Q300
103 365 156Z" />
<glyph unicode="&apos;" glyph-name="quotesingle" horiz-adv-x="278" d="M110 393V714H217V393H110Z" />
<glyph unicode="(" glyph-name="parenleft" horiz-adv-x="296" d="M262 731H387Q260 563 209 414T158 81Q158 -14 196 -181H88Q62 -122 44 -26T26 138Q26 313 83 446T262 731Z" />
<glyph unicode=")" glyph-name="parenright" horiz-adv-x="296" d="M13 -181H-111Q15 -16 66 134T117 468Q117 564 79 731H187Q212 671 230 574T249 411Q249 320 234 242T185 91T113 -43T13 -181Z" />
<glyph unicode="*" glyph-name="asterisk" horiz-adv-x="407" d="M313 710L289 582L410 605L424 526L304 508L361 403L289 364L234 473L148 376L90 432L179 524L71 576L105 649L214 594L231 714L313 710Z" />
<glyph unicode="+" glyph-name="plus" horiz-adv-x="600" d="M48 199V306H247V505H354V306H553V199H354V0H247V199H48Z" />
<glyph unicode="," glyph-name="comma" horiz-adv-x="278" d="M-12 0L19 154H177Q171 129 162 82T146 7T125 -56T90 -113T35 -148T-47 -166L-32 -95Q9 -89 28 -67T56 0H-12Z" />
<glyph unicode="-" glyph-name="hyphen" horiz-adv-x="407" d="M27 212L53 334H354L328 212H27Z" />
<glyph unicode="." glyph-name="period" horiz-adv-x="278" d="M-12 0L20 154H178L145 0H-12Z" />
<glyph unicode="/" glyph-name="slash" horiz-adv-x="389" d="M-1 -16L277 731H391L112 -16H-1Z" />
<glyph unicode="0" glyph-name="zero" horiz-adv-x="556" d="M138 226Q138 103 236 103Q277 103 310 132T362 205T395 300T414 395T419 471Q419 527 394 562T317 597Q268 597 231 554T174 448T147 327T138 226ZM-3 255Q-3 333 17 411T77 559T181 671T327 714Q441
714 501 642T561 449Q561 369 540 290T479 142T370 30T218 -13Q160 -13 116 8T47 67T9 152T-3 255Z" />
<glyph unicode="1" glyph-name="one" horiz-adv-x="556" d="M471 700L323 0H172L268 454H97L120 561Q207 565 263 594T355 700H471Z" />
<glyph unicode="2" glyph-name="two" horiz-adv-x="556" d="M179 448H44Q54 574 128 644T325 714Q427 714 492 661T558 503Q558 445 528 397T449 313T348 248T242 186T160 122H505L477 0H-41Q-38 42 -27 78T7 144T51 197T109 243T171 281T240 319Q249 324 276
338T316 361T352 385T386 416T407 451T416 494Q416 544 387 568T308 592Q252 592 217 550T179 448Z" />
<glyph unicode="3" glyph-name="three" horiz-adv-x="556" d="M216 317L235 417H278Q333 417 372 438T412 510Q412 553 385 575T316 597Q257 597 226 568T182 477H47Q63 591 134 652T318 714Q414 714 481 670T549 531Q549 469 513 426T417 370V368Q515 337 515
225Q515 107 434 47T227 -13Q-34 -13 -17 240H117Q110 176 139 140T231 103Q290 103 328 137T366 230Q366 274 339 295T267 317H216Z" />
<glyph unicode="4" glyph-name="four" horiz-adv-x="556" d="M538 700L449 279H542L517 162H424L389 0H254L289 162H-35L-9 291L400 700H538ZM106 279H314L371 548H369L106 279Z" />
<glyph unicode="5" glyph-name="five" horiz-adv-x="556" d="M556 700L531 583H233L187 434L189 432Q217 454 246 465T326 476Q407 476 464 419T521 267Q521 139 439 63T229 -13Q-9 -13 -16 204H120Q121 154 153 129T239 103Q297 103 338 145T379 250Q379 369
260 369Q188 369 148 310H20L142 700H556Z" />
<glyph unicode="6" glyph-name="six" horiz-adv-x="556" d="M577 519H440Q439 559 415 583T351 607T281 589T229 535T195 471T168 398L170 396Q221 470 324 470Q419 470 475 412T531 256Q531 142 454 65T261 -13Q133 -13 73 63T13 271Q13 460 106 587T356 714Q453
714 513 666T577 519ZM150 221Q150 170 179 137T257 103Q318 103 353 143T389 245Q389 304 360 333T278 363Q221 363 186 322T150 221Z" />
<glyph unicode="7" glyph-name="seven" horiz-adv-x="556" d="M591 700L565 578Q449 482 354 319T219 0H68Q104 144 201 304T410 568H66L94 700H591Z" />
<glyph unicode="8" glyph-name="eight" horiz-adv-x="556" d="M195 555T195 509T230 441T309 418Q356 418 389 443T423 512Q423 559 392 583T312 607Q257 607 226 581ZM68 509Q68 603 143 658T332 714Q429 714 489 660T550 526Q550 474 512 428T415 370V368Q460
358 492 311T524 211Q524 109 440 48T240 -13Q126 -13 54 44T-19 192Q-19 335 155 377V379Q117 397 93 431T68 509ZM122 201Q122 153 158 123T245 93Q308 93 345 124T382 211Q382 264 345 293T258 323Q198 323 160 292T122 201Z" />
<glyph unicode="9" glyph-name="nine" horiz-adv-x="556" d="M-11 181H125Q126 141 150 117T214 93T284 111T336 165T370 229T397 302L395 304Q344 230 241 230Q146 230 90 288T34 444Q34 557 112 635T304 714Q432 714 492 637T552 429Q552 305 512 206T393 47T209
-13Q111 -13 52 35T-11 181ZM415 479Q415 530 385 563T308 597Q247 597 212 557T176 455Q176 396 205 367T287 337Q344 337 379 378T415 479Z" />
<glyph unicode=":" glyph-name="colon" horiz-adv-x="278" d="M252 508L219 354H61L94 508H252ZM-12 0L20 154H178L145 0H-12Z" />
<glyph unicode=";" glyph-name="semicolon" horiz-adv-x="278" d="M61 354L94 508H252L219 354H61ZM-12 0L19 154H177Q171 129 162 82T146 7T125 -56T90 -113T35 -148T-47 -166L-32 -95Q9 -89 28 -67T56 0H-12Z" />
<glyph unicode="&lt;" glyph-name="less" horiz-adv-x="600" d="M554 514V399L187 253L554 107V-7L46 194V312L554 514Z" />
<glyph unicode="=" glyph-name="equal" horiz-adv-x="600" d="M553 199V92H48V199H553ZM553 413V306H48V413H553Z" />
<glyph unicode="&gt;" glyph-name="greater" horiz-adv-x="600" d="M46 -7V107L413 253L46 399V514L554 312V194L46 -7Z" />
<glyph unicode="?" glyph-name="question" horiz-adv-x="574" d="M123 0L156 154H314L281 0H123ZM216 491H74Q80 607 157 669T352 731Q445 731 507 684T570 546Q570 481 533 437T431 356Q379 329 351 299T317 220H185Q198 311 233 352T350 436Q421 478 421 536Q421
574 397 594T334 614Q284 614 253 579T216 491Z" />
<glyph unicode="@" glyph-name="at" horiz-adv-x="800" d="M622 545L559 287Q551 261 551 244Q551 221 568 221Q612 221 648 274T684 405Q684 520 608 585T415 651Q288 651 210 568T132 355Q132 225 214 144T427 63Q560 63 642 145H726Q675 68 595 26T421 -16Q260
-16 148 91T36 357Q36 514 147 622T416 731Q557 731 660 646T764 426Q764 354 737 295T670 204T594 154T529 136Q497 136 478 152T456 193H454Q419 135 346 135Q282 135 236 185T189 306Q189 406 250 483T407 561Q443 561 475 544T524 491L540 545H622ZM291 319Q291
279 312 255T369 230Q420 230 456 278T492 381Q492 417 470 441T415 466Q363 466 327 420T291 319Z" />
<glyph unicode="A" glyph-name="A" horiz-adv-x="685" d="M-76 0L345 714H506L625 0H469L446 159H179L89 0H-76ZM395 560L241 276H432L397 560H395Z" />
<glyph unicode="B" glyph-name="B" horiz-adv-x="722" d="M272 592L237 425H415Q460 425 490 449T521 519Q521 559 500 575T438 592H272ZM-3 0L146 714H446Q563 714 620 679T678 547Q678 484 642 437T544 381V379Q594 365 622 326T650 234Q650 123 571 62T377
0H-3ZM215 318L173 122H370Q426 122 459 152T493 237Q493 264 483 281T452 305T413 315T369 318H215Z" />
<glyph unicode="C" glyph-name="C" horiz-adv-x="741" d="M713 466H556Q556 530 522 564T428 599Q352 599 297 552T218 438T194 299Q194 219 234 167T356 115Q419 115 466 156T524 257H681Q634 111 554 48T354 -16Q201 -16 119 65T37 299Q37 415 83 513T220 671T427
731Q556 731 635 662T713 466Z" />
<glyph unicode="D" glyph-name="D" horiz-adv-x="741" d="M277 582L181 132H302Q418 132 484 211T551 409Q551 582 395 582H277ZM-3 0L147 714H405Q554 714 631 642T708 436Q708 242 601 121T295 0H-3Z" />
<glyph unicode="E" glyph-name="E" horiz-adv-x="667" d="M-3 0L146 714H691L664 582H276L244 429H603L577 307H218L181 132H575L547 0H-3Z" />
<glyph unicode="F" glyph-name="F" horiz-adv-x="593" d="M-3 0L147 714H655L626 582H276L241 417H547L521 295H216L153 0H-3Z" />
<glyph unicode="G" glyph-name="G" horiz-adv-x="759" d="M536 0V73H534Q469 -16 354 -16Q201 -16 119 65T37 299Q37 415 83 513T220 671T427 731Q560 731 645 667T730 478H573Q568 599 428 599Q352 599 297 552T218 438T194 299Q194 219 234 167T356 115Q440
115 486 155T554 269H389L414 386H717L635 0H536Z" />
<glyph unicode="H" glyph-name="H" horiz-adv-x="741" d="M-3 0L147 714H305L247 440H536L594 714H752L601 0H443L508 308H219L154 0H-3Z" />
<glyph unicode="I" glyph-name="I" horiz-adv-x="296" d="M-3 0L147 714H305L154 0H-3Z" />
<glyph unicode="J" glyph-name="J" horiz-adv-x="556" d="M565 714L459 203Q434 93 373 39T198 -16Q105 -16 44 26T-18 156Q-18 197 -5 266H137Q123 204 123 182Q123 151 145 133T200 115Q220 115 235 118T261 133T278 151T291 177T300 204T308 237L407 714H565Z" />
<glyph unicode="K" glyph-name="K" horiz-adv-x="722" d="M-3 0L145 714H302L240 415H242L566 714H774L431 420L650 0H473L310 321L201 226L154 0H-3Z" />
<glyph unicode="L" glyph-name="L" horiz-adv-x="574" d="M-3 0L146 714H304L182 132H527L499 0H-3Z" />
<glyph unicode="M" glyph-name="M" horiz-adv-x="907" d="M-3 0L147 714H364L419 197H421L696 714H915L764 0H617L747 568H745L443 0H323L254 568H252L145 0H-3Z" />
<glyph unicode="N" glyph-name="N" horiz-adv-x="741" d="M-3 0L147 714H309L503 206H505L607 714H751L600 0H443L247 501H245L143 0H-3Z" />
<glyph unicode="O" glyph-name="O" horiz-adv-x="778" d="M37 299Q37 415 83 513T220 671T427 731Q574 731 659 652T744 425Q744 305 700 206T565 46T354 -16Q201 -16 119 65T37 299ZM194 299Q194 219 234 167T356 115Q429 115 483 162T562 276T587 414Q587 496
549 547T428 599Q352 599 297 552T218 438T194 299Z" />
<glyph unicode="P" glyph-name="P" horiz-adv-x="667" d="M-3 0L145 714H431Q679 714 679 506Q679 392 598 324T401 256H207L153 0H-3ZM277 592L233 378H393Q454 378 488 409T522 503Q522 592 411 592H277Z" />
<glyph unicode="Q" glyph-name="Q" horiz-adv-x="778" d="M682 -8L598 -78L514 17Q447 -16 354 -16Q201 -16 119 65T37 299Q37 415 83 513T220 671T427 731Q574 731 659 652T744 425Q744 320 709 230T606 77L682 -8ZM362 189L446 258L509 187Q587 277 587 414Q587
496 549 547T428 599Q352 599 297 552T218 438T194 299Q194 219 234 167T356 115Q385 115 418 126L362 189Z" />
<glyph unicode="R" glyph-name="R" horiz-adv-x="722" d="M278 592L236 391H381Q450 391 496 419T543 504Q543 557 513 574T427 592H278ZM-3 0L146 714H487Q700 719 700 527Q700 454 654 400T536 335V333Q610 309 610 207Q610 192 608 149T605 83Q605 26 615 0H462Q455
30 455 48Q455 72 459 120T463 193Q463 242 437 260T360 279H212L153 0H-3Z" />
<glyph unicode="S" glyph-name="S" horiz-adv-x="648" d="M5 237H154Q150 166 191 136T308 105Q362 105 403 131T444 206Q444 220 439 232T423 253T401 269T371 283T338 295T300 306T263 317Q181 341 132 383T83 509Q83 566 107 610T173 680T263 718T366 731Q485
731 559 675T634 501H485Q487 557 452 583T357 609Q305 609 269 588T232 520Q232 497 248 479T291 451T343 433T391 421Q399 420 402 419Q497 394 545 351T593 219Q593 157 567 110T498 37T406 -3T302 -16Q151 -16 78 45T5 237Z" />
<glyph unicode="T" glyph-name="T" horiz-adv-x="611" d="M156 0L278 582H54L82 714H678L650 582H436L314 0H156Z" />
<glyph unicode="U" glyph-name="U" horiz-adv-x="741" d="M750 714L663 299Q629 136 553 60T319 -16Q264 -16 216 -5T127 30T62 96T38 195Q38 226 53 301L140 714H297L210 301Q195 232 195 211Q195 175 225 145T329 115Q376 115 406 126T456 163T484 216T504 291L593
714H750Z" />
<glyph unicode="V" glyph-name="V" horiz-adv-x="630" d="M712 714L331 0H154L72 714H229L276 178H278L549 714H712Z" />
<glyph unicode="W" glyph-name="W" horiz-adv-x="944" d="M1013 714L678 0H522L504 510H502L280 0H122L73 714H230L240 191H242L468 714H618L636 193H638L856 714H1013Z" />
<glyph unicode="X" glyph-name="X" horiz-adv-x="667" d="M-69 0L255 376L88 714H259L360 478L543 714H729L432 369L609 0H436L324 255L120 0H-69Z" />
<glyph unicode="Y" glyph-name="Y" horiz-adv-x="648" d="M175 0L232 277L61 714H222L329 410L551 714H736L388 270L333 0H175Z" />
<glyph unicode="Z" glyph-name="Z" horiz-adv-x="648" d="M-42 0L-15 130L461 582H95L124 714H688L662 588L181 132H584L558 0H-42Z" />
<glyph unicode="[" glyph-name="bracketleft" horiz-adv-x="333" d="M-36 -181L155 731H413L389 619H264L119 -69H245L221 -181H-36Z" />
<glyph unicode="\" glyph-name="backslash" horiz-adv-x="389" d="M112 731L391 -16H277L-1 731H112Z" />
<glyph unicode="]" glyph-name="bracketright" horiz-adv-x="333" d="M338 731L146 -181H-111L-87 -69H37L182 619H56L80 731H338Z" />
<glyph unicode="^" glyph-name="asciicircum" horiz-adv-x="600" d="M61 315L233 700H367L539 315H422L300 590L178 315H61Z" />
<glyph unicode="_" glyph-name="underscore" horiz-adv-x="500" d="M0 -124V-74H500V-124H0Z" />
<glyph unicode="`" glyph-name="grave" horiz-adv-x="259" d="M176 723L264 581H164L24 723H176Z" />
<glyph unicode="a" glyph-name="a" horiz-adv-x="574" d="M193 360H60Q69 422 106 461T193 516T305 531Q345 531 379 526T447 507T501 465T520 395Q520 360 509 308L463 100Q456 73 456 30Q456 18 461 0H319V51Q262 -13 161 -13Q80 -13 37 25T-6 122Q-6 196 45
241T191 298Q213 301 243 304T289 308T324 313T353 320T371 332T384 349T388 373Q388 408 361 422T298 436Q258 436 229 417T193 360ZM346 198L360 248Q328 229 240 223Q192 218 164 201T135 139Q135 111 157 96T213 81Q272 81 301 113T346 198Z" />
<glyph unicode="b" glyph-name="b" horiz-adv-x="611" d="M-11 0L138 714H280L227 462H229Q263 499 297 515T382 531Q476 531 522 470T568 311Q568 228 539 156T447 35T300 -13Q171 -13 138 81H136L119 0H-11ZM377 424T325 424T237 387T186 301T171 202Q171 153
198 123T274 93Q325 93 361 129T411 213T426 309Q426 361 402 392Z" />
<glyph unicode="c" glyph-name="c" horiz-adv-x="556" d="M534 338H392Q392 383 369 403T297 424Q259 424 230 403T184 347T160 277T152 205Q152 155 175 124T250 93Q335 93 365 189H507Q440 -13 240 -13Q10 -13 10 208Q10 345 88 438T302 531Q403 531 467 484T534 338Z" />
<glyph unicode="d" glyph-name="d" horiz-adv-x="611" d="M307 424Q256 424 220 388T168 305T152 208T178 126T253 93Q303 93 340 130T393 215T409 312Q409 364 383 394T307 424ZM350 0L364 64L362 66Q317 -13 207 -13Q114 -13 62 41T10 190Q10 255 27 315T78
424T167 502T292 531Q340 531 380 510T437 448H439L496 714H638L487 0H350Z" />
<glyph unicode="e" glyph-name="e" horiz-adv-x="574" d="M162 314H399Q399 424 303 424Q201 424 162 314ZM528 224H147Q146 221 146 215V207V194Q146 147 175 120T260 93Q286 93 308 105T341 129T366 164H508Q473 73 411 30T240 -13Q133 -13 72 45T10 212Q10
342 89 436T295 531Q406 531 471 473T536 305Q536 270 528 224Z" />
<glyph unicode="f" glyph-name="f" horiz-adv-x="352" d="M17 0L106 422H22L42 517H127Q138 573 149 605T181 667T238 708T328 720Q371 720 421 712L399 610Q354 613 353 613Q338 613 327 611T308 604T295 595T286 580T280 563T275 541T269 517H370L350 422H248L159
0H17Z" />
<glyph unicode="g" glyph-name="g" horiz-adv-x="611" d="M590 517L487 27Q460 -91 395 -143T202 -195Q145 -195 98 -180T16 -125T-18 -26H123Q121 -63 149 -81T216 -100Q242 -100 263 -90T297 -67T323 -26T342 20T360 79L358 81Q303 8 216 8Q124 8 71 65T17 219Q17
341 89 436T278 531Q396 531 436 438H438L454 517H590ZM304 424Q238 424 199 362T159 229Q159 180 183 148T255 115Q325 115 365 176T406 312Q406 363 380 393T304 424Z" />
<glyph unicode="h" glyph-name="h" horiz-adv-x="611" d="M-11 0L137 714H279L226 457H228Q249 486 292 508T399 531Q550 531 550 392Q550 382 547 365T540 328T535 303L471 0H329L392 303Q401 351 401 366Q401 388 380 403T333 419Q274 419 238 378T188 275L130 0H-11Z" />
<glyph unicode="i" glyph-name="i" horiz-adv-x="259" d="M283 714L257 597H114L140 714H283ZM-11 0L98 517H241L131 0H-11Z" />
<glyph unicode="j" glyph-name="j" horiz-adv-x="259" d="M283 714L257 597H114L140 714H283ZM-131 -176L-107 -62Q-73 -64 -56 -64Q-42 -64 -32 -52T-17 -29T-8 4T-2 28L100 517H242L129 -18Q110 -105 70 -143T-62 -181Q-75 -181 -98 -179T-131 -176Z" />
<glyph unicode="k" glyph-name="k" horiz-adv-x="556" d="M-11 0L138 714H280L198 326L200 324L404 517H579L347 321L480 0H324L239 231L165 168L130 0H-11Z" />
<glyph unicode="l" glyph-name="l" horiz-adv-x="259" d="M-11 0L140 714H282L130 0H-11Z" />
<glyph unicode="m" glyph-name="m" horiz-adv-x="907" d="M-11 0L96 517H232L216 444H218Q280 531 399 531Q507 531 524 441Q550 481 599 506T699 531Q765 531 810 497T856 400Q856 370 841 304L777 0H635L703 327Q707 344 707 364Q707 387 690 403T645 419Q593
419 558 376T512 277L454 0H311L379 327Q383 344 383 364Q383 387 366 403T321 419Q269 419 234 376T188 277L130 0H-11Z" />
<glyph unicode="n" glyph-name="n" horiz-adv-x="611" d="M-11 0L96 517H232L216 445H218Q287 531 399 531Q550 531 550 392Q550 382 547 365T540 328T535 303L471 0H329L392 303Q401 351 401 366Q401 388 380 403T333 419Q274 419 238 378T188 275L130 0H-11Z" />
<glyph unicode="o" glyph-name="o" horiz-adv-x="593" d="M152 209Q152 160 179 127T254 93Q304 93 340 130T391 214T406 310Q406 424 302 424Q231 424 192 355T152 209ZM10 209Q10 345 91 438T307 531Q417 531 482 476T548 312Q548 172 467 80T247 -13Q136 -13
73 43T10 209Z" />
<glyph unicode="p" glyph-name="p" horiz-adv-x="611" d="M-58 -181L90 517H227L213 453L215 451Q261 531 370 531Q463 531 514 477T566 327Q566 261 549 202T498 94T409 16T285 -13Q237 -13 196 8T140 69H137L83 -181H-58ZM323 424Q273 424 236 387T183 302T167
205Q167 153 193 123T269 93Q320 93 356 129T408 212T424 309T398 391T323 424Z" />
<glyph unicode="q" glyph-name="q" horiz-adv-x="611" d="M308 424Q256 424 219 388T167 304T152 208Q152 156 177 125T257 93Q305 93 341 130T394 216T411 315T384 394T308 424ZM590 517L443 -181H301L348 41H346Q295 -13 200 -13T58 48T10 206Q10 289 39 361T131
482T278 531Q407 531 440 436H442L459 517H590Z" />
<glyph unicode="r" glyph-name="r" horiz-adv-x="389" d="M-11 0L96 517H231L210 424L212 422Q235 475 283 503T390 531Q412 531 434 528L405 390Q360 399 345 399Q270 399 233 353T178 229L130 0H-11Z" />
<glyph unicode="s" glyph-name="s" horiz-adv-x="519" d="M484 366H352Q350 436 272 436Q185 436 185 385Q185 368 199 356T250 333L321 310Q385 290 421 256T457 162Q457 101 420 60T329 3T211 -13Q155 -13 109 0T27 52T-8 147V168H123V151Q123 118 154 100T225
81Q262 81 288 96T315 143Q315 168 303 179T264 200L155 235Q96 255 70 282T43 367T80 463T167 516T272 531Q369 531 427 495T484 366Z" />
<glyph unicode="t" glyph-name="t" horiz-adv-x="370" d="M310 674L278 517H380L358 422H257L204 165Q200 150 200 141Q200 124 208 115T225 105T248 103Q274 103 299 106L275 -3Q227 -8 186 -8Q126 -8 88 15T51 96Q51 112 58 145L116 422H23L45 517H136L168 674H310Z" />
<glyph unicode="u" glyph-name="u" horiz-adv-x="611" d="M586 517L478 0H342L358 72H356Q287 -13 175 -13Q24 -13 24 125Q24 160 39 214L103 517H245L182 214Q173 185 173 151Q173 129 194 114T241 98Q300 98 336 139T386 242L444 517H586Z" />
<glyph unicode="v" glyph-name="v" horiz-adv-x="519" d="M543 517L260 0H98L30 517H176L208 149H210L393 517H543Z" />
<glyph unicode="w" glyph-name="w" horiz-adv-x="815" d="M834 517L564 0H416L398 363H396L236 0H87L30 517H175L195 153H197L356 517H500L516 156H518L684 517H834Z" />
<glyph unicode="x" glyph-name="x" horiz-adv-x="519" d="M531 517L316 269L447 0H297L222 170L84 0H-76L163 277L46 517H198L255 368L372 517H531Z" />
<glyph unicode="y" glyph-name="y" horiz-adv-x="519" d="M543 517L214 -72Q178 -137 136 -159T13 -181Q0 -181 -26 -179T-62 -176L-38 -58Q-28 -58 -9 -61T19 -64Q42 -64 59 -56T83 -40T99 -16T113 5L21 517H167L212 147H214L393 517H543Z" />
<glyph unicode="z" glyph-name="z" horiz-adv-x="500" d="M-50 0L-28 105L295 410H46L69 517H503L481 412L156 107H441L418 0H-50Z" />
<glyph unicode="{" glyph-name="braceleft" horiz-adv-x="333" d="M411 731L388 619H334Q278 619 265 546L233 394Q223 349 198 321T152 286T109 276V273Q136 270 162 251T188 194Q188 180 185 163L152 3Q148 -12 148 -34Q148 -69 190 -69H244L221 -181H94Q59
-181 28 -153T-3 -74Q-3 -61 0 -46L40 148Q42 162 42 164Q42 197 17 214T-34 231L-16 318Q15 318 50 340T94 408L133 596Q146 658 194 694T284 731H411Z" />
<glyph unicode="|" glyph-name="bar" horiz-adv-x="222" d="M58 -213V786H165V-213H58Z" />
<glyph unicode="}" glyph-name="braceright" horiz-adv-x="333" d="M-109 -181L-86 -69H-32Q22 -69 36 3L68 155Q87 256 192 273V276Q164 279 139 297T113 355Q113 370 116 386L149 546Q153 562 153 584Q153 619 111 619H57L80 731H207Q242 731 273 703T305 624Q305
611 302 596L261 401Q259 387 259 385Q259 352 284 335T336 318L318 231Q286 231 251 209T207 141L168 -46Q155 -108 107 -144T17 -181H-109Z" />
<glyph unicode="~" glyph-name="asciitilde" horiz-adv-x="600" d="M493 344L533 251Q506 210 478 188T408 165Q363 165 306 198Q247 233 191 233Q140 233 107 161L67 254Q109 340 192 340Q230 340 303 308Q310 305 324 299T347 289T367 281T388 274T405 272Q424
272 442 285T467 308T493 344Z" />
</font>
</defs>
</svg>
