<?xml version="1.0" standalone="no"?> <!DOCTYPE svg PUBLIC "-//W3C//DTD SVG 1.0//EN" "http://www.w3.org/TR/2001/REC-SVG-20010904/DTD/svg10.dtd" > <svg xmlns="http://www.w3.org/2000/svg" width="100%" height="100%">
<defs >
<font id="Helvetica_Neue_Medium_Italic" horiz-adv-x="462" ><font-face
    font-family="Helvetica Neue"
    units-per-em="1000"
    panose-1="2 0 6 3 5 0 0 9 0 4"
    ascent="750"
    descent="-170"
    alphabetic="0" />
<missing-glyph horiz-adv-x="278" />
<glyph unicode=" " glyph-name="space" horiz-adv-x="278" />
<glyph unicode="!" glyph-name="exclam" horiz-adv-x="296" d="M160 714H283L239 502L141 199H83L117 506L160 714ZM36 125H165L138 0H9L36 125Z" />
<glyph unicode="&quot;" glyph-name="quotedbl" horiz-adv-x="444" d="M299 714H401V432H299V714ZM123 714H225V432H123V714Z" />
<glyph unicode="#" glyph-name="numbersign" horiz-adv-x="556" d="M237 415L219 285H330L348 415H237ZM495 210H400L370 0H290L319 210H209L179 0H99L128 210H34L44 285H139L157 415H63L73 490H167L196 700H277L247 490H358L387 700H468L438 490H534L524 415H428L410
285H505L495 210Z" />
<glyph unicode="$" glyph-name="dollar" horiz-adv-x="556" d="M322 641Q295 642 270 635T225 611T195 571T183 513Q183 490 190 475T210 449T240 433T277 421L322 641ZM247 73Q277 73 303 81T350 106T383 147T395 204Q395 228 387 245T366 274T334 294T296 309L247
73ZM256 321Q221 330 188 343T128 377T86 430T69 505Q69 563 90 606T147 677T233 719T340 731L355 802H397L382 727Q470 716 514 666T556 528H448Q452 573 431 602T364 641L317 411Q355 399 389 384T450 347T493 293T509 215Q509 156 487 111T426 37T336 -6T229
-17L211 -102H169L186 -16Q97 -6 44 42T-9 175Q-9 185 -9 195T-7 216H106Q105 209 105 203T105 190Q105 143 129 114T205 75L256 321Z" />
<glyph unicode="%" glyph-name="percent" horiz-adv-x="944" d="M775 240Q775 272 763 294T720 316Q687 316 666 295T633 245T615 183T610 127Q610 92 622 72T666 51Q699 51 720 72T753 122T770 184T775 240ZM667 -14Q602 -14 563 25T523 134Q523 177 535 221T571
300T631 358T718 381Q783 381 822 342T862 233Q862 188 851 144T816 65T755 8T667 -14ZM334 573Q334 605 322 627T279 649Q246 649 225 628T191 578T174 516T169 460Q169 425 182 405T225 384Q258 384 279 405T312 455T329 517T334 573ZM226 319Q161 319 122 358T82
467Q82 510 94 554T130 633T190 691T277 714Q342 714 381 675T421 566Q421 521 410 477T375 398T314 341T226 319ZM633 724H706L306 -24H235L633 724Z" />
<glyph unicode="&amp;" glyph-name="ampersand" horiz-adv-x="667" d="M347 646Q310 646 286 624T261 554Q261 521 274 497T303 444Q321 454 341 465T378 492T407 525T418 568Q418 607 398 626T347 646ZM586 0H459L419 66Q377 26 331 6T223 -14Q179 -14 141 0T75
39T32 102T16 184Q16 226 34 260T80 321T143 368T212 405Q189 438 174 473T159 549Q159 592 173 625T213 682T271 718T342 731Q378 732 410 723T466 693T505 641T520 568Q520 531 505 502T465 450T410 407T351 373L444 221Q455 233 473 263T503 340H606Q597 288
568 234T498 137L586 0ZM260 328Q241 319 218 305T173 272T138 230T124 178Q124 153 133 134T157 102T190 83T226 76Q245 76 265 81T304 95T340 118T370 147L260 328Z" />
<glyph unicode="&apos;" glyph-name="quotesingle" horiz-adv-x="278" d="M128 714H230V432H128V714Z" />
<glyph unicode="(" glyph-name="parenleft" horiz-adv-x="296" d="M370 731Q316 663 273 593T199 446T153 288T136 115Q136 35 147 -41T182 -191H98Q66 -109 47 -23T28 156Q28 244 46 321T96 469T173 604T273 731H370Z" />
<glyph unicode=")" glyph-name="parenright" horiz-adv-x="296" d="M-92 -191Q-29 -107 15 -33T88 113T130 260T143 422Q143 584 96 731H179Q213 648 232 559T251 374Q251 289 233 214T181 69T103 -65T5 -191H-92Z" />
<glyph unicode="*" glyph-name="asterisk" horiz-adv-x="389" d="M352 426L291 395L240 501L155 410L109 455L192 544L91 596L123 655L225 602L244 714H311L288 593L403 609L412 545L300 530L352 426Z" />
<glyph unicode="+" glyph-name="plus" horiz-adv-x="600" d="M249 506H351V304H552V202H351V0H249V202H48V304H249V506Z" />
<glyph unicode="," glyph-name="comma" horiz-adv-x="278" d="M30 135H170Q158 91 150 43T125 -46T76 -115T-15 -146L-4 -88Q34 -83 51 -59T76 0H0L30 135Z" />
<glyph unicode="-" glyph-name="hyphen" horiz-adv-x="389" d="M42 326H338L317 218H21L42 326Z" />
<glyph unicode="." glyph-name="period" horiz-adv-x="278" d="M30 135H169L139 0H0L30 135Z" />
<glyph unicode="/" glyph-name="slash" horiz-adv-x="352" d="M-27 -17L260 731H369L82 -17H-27Z" />
<glyph unicode="0" glyph-name="zero" horiz-adv-x="556" d="M11 254Q11 261 14 298T27 386T58 494T115 601T204 682T334 714Q446 714 493 644T541 446Q541 424 536 382T519 288T483 183T425 86T338 14T218 -14Q162 -14 123 5T59 60T23 145T11 254ZM427 479Q427
506 422 531T405 576T373 607T321 619Q285 619 257 598T206 541T169 463T144 375T130 290T125 221Q125 194 130 169T147 124T179 93T231 81Q267 81 295 102T346 159T383 237T408 325T422 410T427 479Z" />
<glyph unicode="1" glyph-name="one" horiz-adv-x="556" d="M132 584Q167 584 201 590T265 611T320 648T362 700H453L306 0H185L291 511Q246 501 203 498T113 494L132 584Z" />
<glyph unicode="2" glyph-name="two" horiz-adv-x="556" d="M459 0H-27Q-13 88 36 153T161 263Q200 287 241 312T326 364Q369 390 396 426T424 521Q424 545 415 563T390 594T353 613T310 619Q277 619 251 607T207 573T178 522T165 458H57Q62 515 81 562T133 643T213
695T320 714Q366 714 405 702T474 666T521 606T538 519Q538 475 526 441T491 378T439 325T375 280Q341 259 306 239T238 198T176 154T126 102H481L459 0Z" />
<glyph unicode="3" glyph-name="three" horiz-adv-x="556" d="M240 410H264Q295 410 324 414T375 430T411 464T425 523Q425 572 394 595T319 619Q258 619 223 581T176 485H68Q77 536 97 578T151 651T229 697T331 714Q371 714 408 704T475 672T521 618T539 540Q539
474 503 430T410 371V369Q458 351 477 313T497 224Q497 166 475 122T414 47T324 2T215 -14Q116 -14 57 38T-2 184Q-2 200 -2 209T0 230H108Q107 222 107 215T106 200Q106 145 140 113T235 81Q302 81 342 120T383 227Q383 257 372 276T342 306T300 321T252 325H222L240
410Z" />
<glyph unicode="4" glyph-name="four" horiz-adv-x="556" d="M510 166H415L380 0H266L301 166H1L23 276L413 700H527L434 256H529L510 166ZM385 549H383L112 256H320L385 549Z" />
<glyph unicode="5" glyph-name="five" horiz-adv-x="556" d="M160 700H545L525 598H233L181 433L183 431Q212 453 244 462T313 471Q358 471 394 456T456 412T496 347T510 265Q510 202 489 151T430 63T340 6T227 -14Q177 -14 135 -1T63 39T17 105T2 198H116Q119
142 147 112T235 81Q270 81 299 94T350 129T384 182T396 247Q396 312 363 346T275 381Q233 381 201 365T146 318H45L160 700Z" />
<glyph unicode="6" glyph-name="six" horiz-adv-x="556" d="M257 81Q292 81 318 95T363 133T390 187T399 247Q399 300 369 335T281 370Q246 370 219 358T174 323T147 273T137 211Q137 184 145 161T168 120T205 92T257 81ZM447 523Q447 567 423 593T355 619Q309
619 276 598T220 544T181 471T155 394L157 392Q186 428 224 444T308 460Q358 460 396 444T461 398T500 329T513 242Q513 188 494 141T441 60T363 6T268 -14Q202 -14 156 5T80 61T37 149T23 268Q23 280 26 317T40 405T72 509T131 609T223 684T356 714Q401 714 438
702T502 665T544 606T561 523H447Z" />
<glyph unicode="7" glyph-name="seven" horiz-adv-x="556" d="M115 700H599L577 592Q567 582 539 553T472 479T391 374T309 242Q278 184 255 124T215 0H88Q137 170 230 320T449 598H93L115 700Z" />
<glyph unicode="8" glyph-name="eight" horiz-adv-x="556" d="M114 192Q114 162 124 140T152 104T193 83T244 76Q277 76 304 86T350 115T380 160T391 217Q391 276 354 302T260 329Q192 329 153 294T114 192ZM191 510Q191 486 200 468T224 438T259 420T301 414Q358
414 390 441T423 527Q423 553 414 571T390 601T355 618T313 624Q257 624 224 593T191 510ZM0 190Q0 230 14 263T53 321T107 361T170 382V384Q128 407 106 439T83 520Q83 568 101 604T152 664T228 701T321 714Q361 714 399 705T466 675T513 621T531 540Q531 470
494 427T403 372V371Q454 351 479 307T505 202Q505 155 482 116T422 48T338 3T245 -14Q189 -14 144 0T67 41T18 105T0 190Z" />
<glyph unicode="9" glyph-name="nine" horiz-adv-x="556" d="M277 329Q312 329 338 342T381 377T408 429T417 491Q417 518 411 541T390 581T355 609T303 619Q267 619 240 605T195 568T168 515T158 455Q158 400 186 365T277 329ZM116 177Q117 133 142 107T216 81Q265
81 297 102T350 156T382 229T403 306L401 308Q374 272 335 256T249 239Q236 239 216 240T173 248T127 268T86 306T56 367T44 458Q44 512 63 558T115 639T193 694T292 714Q358 714 402 695T472 647T511 582T528 515T532 459T531 428Q531 385 524 336T502 237T461
142T400 62T317 7T207 -14Q163 -14 126 -2T62 35T19 94T2 177H116Z" />
<glyph unicode=":" glyph-name="colon" horiz-adv-x="278" d="M30 135H169L139 0H0L30 135ZM108 506H247L217 371H78L108 506Z" />
<glyph unicode=";" glyph-name="semicolon" horiz-adv-x="278" d="M108 506H247L217 371H78L108 506ZM30 135H170Q158 91 150 43T125 -46T76 -115T-15 -146L-4 -88Q34 -83 51 -59T76 0H0L30 135Z" />
<glyph unicode="&lt;" glyph-name="less" horiz-adv-x="600" d="M554 -8L46 217V289L554 514V412L180 253L554 94V-8Z" />
<glyph unicode="=" glyph-name="equal" horiz-adv-x="600" d="M552 101H48V203H552V101ZM552 303H48V405H552V303Z" />
<glyph unicode="&gt;" glyph-name="greater" horiz-adv-x="600" d="M420 253L46 412V514L554 289V217L46 -8V94L420 253Z" />
<glyph unicode="?" glyph-name="question" horiz-adv-x="556" d="M157 125H286L259 0H130L157 125ZM183 203Q189 238 197 265T220 316T255 358T306 398Q328 412 350 426T391 457T420 496T431 548Q431 569 422 585T397 612T364 630T326 636Q295 636 271 625T228
593T200 547T185 493H72Q78 546 98 589T152 664T229 713T328 731Q372 731 411 721T480 689T527 633T545 550Q545 506 531 475T494 420T440 375T379 332Q356 317 342 305T319 278T303 247T289 203H183Z" />
<glyph unicode="@" glyph-name="at" horiz-adv-x="800" d="M543 279Q539 267 537 255T534 233T538 217T553 210Q576 210 599 226T642 272T673 340T685 426Q685 482 664 526T606 602T520 649T416 666Q352 666 300 643T209 579T150 484T129 366Q129 293 151 234T213
134T307 71T425 48Q491 48 550 74T650 147H720Q672 69 593 26T421 -17Q344 -17 276 11T158 91T78 213T49 370Q49 446 78 511T158 626T274 703T416 731Q483 731 543 710T650 649T723 556T751 438Q751 363 726 307T664 214T586 159T515 140Q492 140 475 154T456 198H454Q434
175 404 158T342 141Q311 141 284 153T238 187T207 237T196 298Q196 346 212 392T256 475T325 534T415 557Q450 557 479 540T527 485L545 542H615L543 279ZM361 216Q391 216 416 233T459 277T487 335T498 394Q498 412 492 428T475 456T450 475T419 482Q389 482
364 465T321 423T293 366T283 307Q283 267 304 242T361 216Z" />
<glyph unicode="A" glyph-name="A" horiz-adv-x="685" d="M368 714H500L624 0H497L468 189H184L74 0H-60L368 714ZM411 588H409L237 284H455L411 588Z" />
<glyph unicode="B" glyph-name="B" horiz-adv-x="704" d="M147 102H326Q342 102 371 103T430 113T483 146T511 213Q512 226 511 245T497 282T458 312T383 325H194L147 102ZM212 415H399Q445 415 473 427T516 456T536 493T541 527Q541 538 538 552T524 580T491
603T431 612H253L212 415ZM149 714H457Q528 714 569 695T632 650T660 595T666 547Q666 515 657 487T629 436T586 398T529 377V375Q584 358 610 320T636 225Q636 197 625 159T585 85T503 25T368 0H1L149 714Z" />
<glyph unicode="C" glyph-name="C" horiz-adv-x="722" d="M571 476Q571 551 529 590T410 629Q346 629 299 600T220 524T172 418T156 299Q156 199 207 142T352 85Q400 85 433 103T487 148T520 203T537 249H662Q647 181 617 131T546 48T454 -1T348 -17Q271 -17 212
7T113 73T52 172T31 295Q31 407 64 489T152 625T275 705T414 731Q477 731 530 714T620 665T678 585T696 476H571Z" />
<glyph unicode="D" glyph-name="D" horiz-adv-x="722" d="M148 102H304Q358 102 398 120T468 167T516 232T547 302T563 367T568 416Q568 510 527 561T411 612H255L148 102ZM151 714H413Q550 714 621 639T693 415Q693 383 686 344T665 264T630 186T580 120Q548
89 518 67T451 29T367 7T252 0H1L151 714Z" />
<glyph unicode="E" glyph-name="E" horiz-adv-x="630" d="M149 714H669L647 606H250L211 419H579L558 317H189L146 108H546L524 0H1L149 714Z" />
<glyph unicode="F" glyph-name="F" horiz-adv-x="593" d="M150 714H637L615 606H252L213 419H528L506 317H192L126 0H1L150 714Z" />
<glyph unicode="G" glyph-name="G" horiz-adv-x="759" d="M620 0H540V75H538Q519 51 496 34T447 6T396 -11T348 -17Q271 -17 212 7T113 73T52 172T31 295Q31 407 64 489T152 625T275 705T414 731Q477 731 531 716T626 671T689 595T712 486H587Q583 559 536 594T410
629Q346 629 299 600T220 524T172 418T156 299Q156 199 207 142T352 85Q398 85 434 99T496 140T541 202T569 281H373L393 376H700L620 0Z" />
<glyph unicode="H" glyph-name="H" horiz-adv-x="722" d="M142 714H267L208 430H542L601 714H726L578 0H453L520 322H186L119 0H-6L142 714Z" />
<glyph unicode="I" glyph-name="I" horiz-adv-x="278" d="M153 714H278L129 0H4L153 714Z" />
<glyph unicode="J" glyph-name="J" horiz-adv-x="537" d="M433 714H558L476 315Q472 298 466 269T450 206T430 139T405 83Q387 54 364 35T314 5T259 -12T202 -17Q137 -17 98 2T37 47T9 101T2 150Q2 177 4 201T13 250H130Q125 231 122 212T119 172Q119 128 142
107T211 85Q244 85 265 98T300 134T323 191T340 264L433 714Z" />
<glyph unicode="K" glyph-name="K" horiz-adv-x="685" d="M149 714H274L207 390L209 388L573 714H740L397 419L621 0H479L300 341L174 233L126 0H1L149 714Z" />
<glyph unicode="L" glyph-name="L" horiz-adv-x="574" d="M152 714H277L151 108H511L489 0H4L152 714Z" />
<glyph unicode="M" glyph-name="M" horiz-adv-x="889" d="M152 714H324L402 170H404L714 714H891L744 0H624L748 572H746L423 0H325L235 572H233L124 0H4L152 714Z" />
<glyph unicode="N" glyph-name="N" horiz-adv-x="722" d="M149 714H286L505 181H507L616 714H741L593 0H456L236 530H234L126 0H1L149 714Z" />
<glyph unicode="O" glyph-name="O" horiz-adv-x="759" d="M156 299Q156 199 207 142T352 85Q414 85 460 114T538 190T585 296T601 415Q601 515 553 572T410 629Q346 629 299 600T220 524T172 418T156 299ZM31 295Q31 407 64 489T152 625T275 705T414 731Q484 731
542 708T640 644T703 545T726 419Q726 306 694 224T609 89T488 9T348 -17Q271 -17 212 7T113 73T52 172T31 295Z" />
<glyph unicode="P" glyph-name="P" horiz-adv-x="667" d="M152 714H439Q495 714 533 703T596 673T634 631T654 583T661 536T662 496Q662 495 661 478T652 437T628 384T583 331T510 290T400 274H186L129 0H4L152 714ZM207 376H396Q438 376 465 388T508 421T530
465T537 514Q537 529 533 546T516 578T480 602T418 612H256L207 376Z" />
<glyph unicode="Q" glyph-name="Q" horiz-adv-x="759" d="M508 18Q470 0 430 -8T348 -17Q271 -17 212 7T113 73T52 172T31 295Q31 407 64 489T152 625T275 705T414 731Q484 731 542 708T640 644T703 545T726 419Q726 295 688 209T588 70L665 -11L595 -74L508 18ZM434
232L508 154Q531 178 548 208T577 272T595 342T601 415Q601 515 553 572T410 629Q346 629 299 600T220 524T172 418T156 299Q156 199 207 142T352 85Q395 85 430 100L364 169L434 232Z" />
<glyph unicode="R" glyph-name="R" horiz-adv-x="704" d="M209 389H392Q472 389 515 422T558 519Q558 548 548 566T519 595T478 608T430 612H255L209 389ZM149 714H458Q481 714 519 710T593 688T656 634T683 532Q683 447 640 400T521 338V336Q566 319 581 286T597
207Q597 170 591 133T586 59Q586 44 588 29T599 0H468Q463 14 462 27T460 55Q460 95 466 133T472 211Q472 242 461 259T430 283T387 292T338 294H189L128 0H1L149 714Z" />
<glyph unicode="S" glyph-name="S" horiz-adv-x="648" d="M133 236Q129 153 174 119T297 85Q322 85 350 91T402 110T440 146T456 199Q456 229 442 249T404 282T349 305T285 324Q261 330 228 341T164 372T112 425T90 509Q90 557 108 598T160 668T243 714T356 731Q412
731 461 719T546 680T602 610T620 503H500Q499 570 463 599T354 629Q341 629 318 626T272 612T232 581T215 524Q215 498 227 481T259 452T307 432T364 417Q402 407 440 396T510 362T561 305T581 214Q581 172 565 131T514 57T422 4T284 -17Q221 -17 170 -3T84 42T30
121T13 236H133Z" />
<glyph unicode="T" glyph-name="T" horiz-adv-x="593" d="M79 714H667L644 606H417L291 0H166L292 606H57L79 714Z" />
<glyph unicode="U" glyph-name="U" horiz-adv-x="741" d="M150 714H275L183 277Q180 263 178 249T175 219Q174 183 185 159T218 119T267 98T328 91Q363 91 394 99T450 127T493 183T524 274L618 714H743L649 266Q640 222 623 172T569 80T472 11T314 -17Q261 -17
213 -4T129 37T72 105T50 203Q50 228 53 251T62 299L150 714Z" />
<glyph unicode="V" glyph-name="V" horiz-adv-x="611" d="M67 714H194L261 150H263L561 714H694L302 0H160L67 714Z" />
<glyph unicode="W" glyph-name="W" horiz-adv-x="926" d="M70 714H198L222 168H224L471 714H594L631 168H633L867 714H995L663 0H536L502 546H500L250 0H123L70 714Z" />
<glyph unicode="X" glyph-name="X" horiz-adv-x="648" d="M265 375L96 714H233L350 458L554 714H701L406 365L583 0H449L321 277L96 0H-53L265 375Z" />
<glyph unicode="Y" glyph-name="Y" horiz-adv-x="630" d="M228 283L52 714H183L306 390L556 714H704L351 273L295 0H170L228 283Z" />
<glyph unicode="Z" glyph-name="Z" horiz-adv-x="630" d="M123 714H667L646 612L137 108H565L542 0H-42L-20 104L483 606H101L123 714Z" />
<glyph unicode="[" glyph-name="bracketleft" horiz-adv-x="296" d="M159 731H384L365 641H250L96 -101H209L190 -191H-33L159 731Z" />
<glyph unicode="\" glyph-name="backslash" horiz-adv-x="352" d="M270 -17L-17 731H92L379 -17H270Z" />
<glyph unicode="]" glyph-name="bracketright" horiz-adv-x="296" d="M102 -191H-123L-104 -101H11L165 641H52L71 731H294L102 -191Z" />
<glyph unicode="^" glyph-name="asciicircum" horiz-adv-x="600" d="M84 335L264 700H336L516 335H414L300 572L186 335H84Z" />
<glyph unicode="_" glyph-name="underscore" horiz-adv-x="500" d="M0 -125V-75H500V-125H0Z" />
<glyph unicode="`" glyph-name="grave" horiz-adv-x="241" d="M185 588L67 731H192L269 588H185Z" />
<glyph unicode="a" glyph-name="a" horiz-adv-x="556" d="M105 142Q105 123 113 111T135 91T164 80T196 76Q238 76 266 90T313 128T342 184T359 254L357 256Q345 244 325 239T286 232Q262 230 231 228T172 218T125 192T105 142ZM448 150Q445 136 442 123T438 99Q438
88 443 82T462 76Q472 76 482 78T502 82L484 0Q462 -5 440 -9T395 -14Q366 -14 347 4T326 52Q292 18 246 2T152 -14Q120 -14 91 -5T40 21T4 64T-9 124Q-9 172 9 204T57 258T126 289T208 302Q237 304 265 306T322 311Q353 313 367 331T382 379Q382 416 356 428T295
441Q248 441 213 425T166 360H58Q67 408 89 440T143 493T215 522T302 531Q372 531 411 518T469 485T492 446T496 411Q496 379 486 333L448 150Z" />
<glyph unicode="b" glyph-name="b" horiz-adv-x="611" d="M136 714H250L197 458L199 456Q257 531 356 531Q402 531 438 515T500 471T538 403T551 318Q551 257 534 198T483 91T398 15T280 -14Q220 -14 178 8T109 87H107L92 0H-12L136 714ZM316 441Q273 441 241
419T188 363T156 287T145 206Q145 146 174 111T266 76Q309 76 341 98T394 154T426 229T437 310Q437 370 408 405T316 441Z" />
<glyph unicode="c" glyph-name="c" horiz-adv-x="556" d="M398 346Q400 394 372 417T296 441Q253 441 221 419T168 363T137 289T126 211Q126 182 132 158T151 115T187 87T241 76Q292 76 324 103T371 178H485Q457 78 391 32T222 -14Q171 -14 132 2T67 47T26 117T12
207Q12 272 32 331T90 434T182 505T306 531Q349 531 387 519T453 484T497 426T512 346H398Z" />
<glyph unicode="d" glyph-name="d" horiz-adv-x="611" d="M468 0H359L375 70L373 72Q339 22 298 4T211 -14Q189 -14 155 -8T89 19T33 83T10 198Q10 261 29 320T84 427T172 502T291 531Q343 531 385 512T447 446H449L506 714H620L468 0ZM419 317Q419 342 413 365T393
404T357 431T305 441Q257 441 223 420T167 363T135 285T124 198Q124 140 153 108T242 76Q286 76 319 99T374 157T408 235T419 317Z" />
<glyph unicode="e" glyph-name="e" horiz-adv-x="556" d="M402 304Q403 313 403 320T403 336Q403 382 374 411T294 441Q230 441 192 403T137 304H402ZM485 160Q458 69 394 28T236 -14Q187 -14 146 1T74 46T27 117T10 212Q10 272 29 329T84 431T174 503T297 531Q366
531 409 508T476 450T508 373T517 293Q517 274 515 258T511 229H126Q124 220 124 212T124 196Q124 142 153 109T247 76Q293 76 326 97T371 160H485Z" />
<glyph unicode="f" glyph-name="f" horiz-adv-x="315" d="M110 432H25L42 517H127Q136 562 146 598T175 660T225 700T310 714Q333 714 354 712T395 707L376 620Q357 624 332 624Q303 624 288 616T264 594T251 560T241 517H341L324 432H224L134 0H20L110 432Z" />
<glyph unicode="g" glyph-name="g" horiz-adv-x="593" d="M133 218Q133 192 139 169T158 128T191 100T241 90Q287 90 319 111T373 165T403 239T413 319Q413 375 384 408T298 441Q256 441 225 420T174 365T143 293T133 218ZM462 14Q449 -45 430 -87T380 -155T306
-193T201 -205Q158 -205 118 -196T48 -168T-1 -117T-21 -40H93Q95 -84 128 -102T211 -120Q249 -120 274 -109T315 -79T341 -34T357 25L368 76L366 78Q340 40 303 20T220 0Q123 0 71 57T19 212Q19 270 36 327T87 430T171 503T286 531Q342 531 383 508T446 431H448L463
517H571L462 14Z" />
<glyph unicode="h" glyph-name="h" horiz-adv-x="574" d="M136 714H250L194 444H196Q225 483 271 507T366 531Q444 531 480 494T517 394Q517 380 516 362T512 330L443 0H329L395 319Q398 332 400 344T403 367Q403 373 403 385T395 410T372 432T324 441Q290 441
264 427T216 391Q196 371 182 342T160 280L102 0H-12L136 714Z" />
<glyph unicode="i" glyph-name="i" horiz-adv-x="241" d="M136 714H249L227 606H114L136 714ZM95 517H209L102 0H-12L95 517Z" />
<glyph unicode="j" glyph-name="j" horiz-adv-x="241" d="M136 714H249L227 606H114L136 714ZM95 517H209L100 -8Q94 -36 88 -61T71 -110Q51 -162 18 -183T-70 -205Q-105 -205 -133 -199L-113 -108Q-107 -113 -97 -114T-74 -115Q-57 -115 -47 -106T-31 -84T-22
-53T-16 -21L95 517Z" />
<glyph unicode="k" glyph-name="k" horiz-adv-x="519" d="M136 714H250L166 310L168 308L402 517H546L318 327L444 0H318L227 251L139 176L102 0H-12L136 714Z" />
<glyph unicode="l" glyph-name="l" horiz-adv-x="241" d="M136 714H250L102 0H-12L136 714Z" />
<glyph unicode="m" glyph-name="m" horiz-adv-x="889" d="M101 517H209L194 444L196 442Q228 483 273 507T373 531Q397 531 418 526T457 511T487 482T504 439Q539 479 582 505T679 531Q754 531 790 494T826 394Q826 380 824 362T818 330L752 0H638L702 306Q704
315 707 331T712 367Q712 381 710 394T699 417T677 434T641 441Q608 441 583 428T539 394T509 349T493 302L430 0H316L375 284Q379 304 384 329T390 377Q390 403 377 422T327 441Q294 441 271 429T230 400Q213 383 195 357T170 299L108 0H-6L101 517Z" />
<glyph unicode="n" glyph-name="n" horiz-adv-x="574" d="M95 517H202L186 442L188 440Q219 483 265 507T366 531Q444 531 480 494T517 394Q517 380 516 362T512 330L443 0H329L395 319Q398 332 400 344T403 367Q403 373 403 385T395 410T372 432T324 441Q290
441 264 427T216 391Q196 371 182 342T160 280L102 0H-12L95 517Z" />
<glyph unicode="o" glyph-name="o" horiz-adv-x="593" d="M300 441Q256 441 224 419T169 364T137 289T126 209Q126 152 154 114T245 76Q289 76 321 97T376 152T408 227T419 308Q419 365 391 403T300 441ZM238 -14Q131 -14 72 44T12 212Q12 276 33 333T92 435T185
505T307 531Q414 531 473 475T533 309Q533 241 513 182T455 80T362 11T238 -14Z" />
<glyph unicode="p" glyph-name="p" horiz-adv-x="611" d="M151 209Q151 181 157 157T177 115T213 87T265 76Q311 76 344 96T399 150T431 224T442 306Q442 334 436 358T415 401T380 430T328 441Q282 441 249 420T194 366T162 291T151 209ZM97 517H210L195 451L197
449Q224 488 268 509T360 531Q408 531 445 515T506 471T543 403T556 317Q556 258 540 199T491 92T408 16T291 -14Q234 -14 190 5T122 80H120L64 -191H-50L97 517Z" />
<glyph unicode="q" glyph-name="q" horiz-adv-x="611" d="M124 206Q124 179 130 156T151 115T187 87T242 76Q288 76 321 98T376 155T408 233T418 318Q418 372 389 406T305 441Q259 441 225 419T169 363T135 288T124 206ZM429 -191H315L368 62L366 64Q335 23 290
5T195 -14Q148 -14 113 1T55 45T21 110T10 192Q10 256 28 317T83 425T172 502T297 531Q348 531 390 510T452 439H454L470 517H576L429 -191Z" />
<glyph unicode="r" glyph-name="r" horiz-adv-x="370" d="M95 517H203L182 416L184 414Q196 435 213 456T251 493T298 520T349 531Q363 531 376 531T404 528L380 419Q370 421 360 422T340 423Q296 423 264 408T209 365T172 303T150 229L102 0H-12L95 517Z" />
<glyph unicode="s" glyph-name="s" horiz-adv-x="500" d="M354 366Q353 405 325 423T250 441Q233 441 218 438T190 428T170 408T162 376Q162 358 175 347T211 328T260 312T314 294Q337 285 359 274T397 247T424 209T434 156Q434 111 414 79T362 26T289 -4T205
-14Q160 -14 121 -6T53 23T7 78T-11 166H97Q96 142 104 125T128 97T165 81T211 76Q229 76 248 79T283 91T309 113T320 150Q320 170 306 183T269 206T218 223T162 241Q139 249 119 260T82 286T57 323T48 373Q48 415 66 445T115 494T183 522T261 531Q303 531 340
524T404 497T447 446T462 366H354Z" />
<glyph unicode="t" glyph-name="t" horiz-adv-x="333" d="M159 672H270L238 517H341L323 432H220L167 179Q163 162 160 147T157 123Q157 106 164 96T198 85Q211 85 226 85T259 90L240 6Q218 1 193 -2T146 -5Q115 -5 95 3T64 24T48 55T43 91Q43 106 45 124T50 149L109
432H19L37 517H127L159 672Z" />
<glyph unicode="u" glyph-name="u" horiz-adv-x="574" d="M439 0H332L348 75L346 77Q315 34 269 10T168 -14Q90 -14 54 23T17 123Q17 137 18 155T22 187L91 517H205L139 198Q136 185 134 173T131 150Q131 144 131 132T139 107T162 85T210 76Q243 76 270 90T319
128T354 179T374 237L432 517H546L439 0Z" />
<glyph unicode="v" glyph-name="v" horiz-adv-x="500" d="M34 517H152L195 140H197L397 517H517L231 0H104L34 517Z" />
<glyph unicode="w" glyph-name="w" horiz-adv-x="778" d="M29 517H146L177 144H179L351 517H470L492 144H495L674 517H794L525 0H405L383 377H381L209 0H90L29 517Z" />
<glyph unicode="x" glyph-name="x" horiz-adv-x="500" d="M56 517H178L249 352L383 517H515L295 267L427 0H303L219 190L61 0H-70L170 275L56 517Z" />
<glyph unicode="y" glyph-name="y" horiz-adv-x="500" d="M29 517H149L203 139H205L400 517H522L226 -16Q206 -53 187 -87T144 -147T86 -189T5 -205Q-27 -205 -64 -197L-43 -102Q-32 -105 -21 -107T1 -110Q27 -110 45 -101T75 -66L120 17L29 517Z" />
<glyph unicode="z" glyph-name="z" horiz-adv-x="481" d="M69 517H484L465 434L124 90H417L398 0H-49L-30 84L310 427H49L69 517Z" />
<glyph unicode="{" glyph-name="braceleft" horiz-adv-x="296" d="M-18 315Q-8 315 9 318T42 329T72 352T91 388L134 594Q150 670 193 700T291 731H382L363 641H304Q285 641 273 635T252 618T240 595T233 571L193 376Q186 346 170 326T136 295T98 278T67 271V269Q77
268 91 265T119 254T141 231T151 190Q151 182 151 175T148 158L108 -31Q106 -37 105 -43T104 -57Q104 -74 112 -87T150 -101H209L190 -191H99Q85 -191 67 -185T33 -165T7 -132T-4 -85Q-4 -71 -1 -54L36 120Q39 134 41 145T43 161Q43 180 34 192T13 212T-14 222T-37
225L-18 315Z" />
<glyph unicode="|" glyph-name="bar" horiz-adv-x="222" d="M60 786H162V-214H60V786Z" />
<glyph unicode="}" glyph-name="braceright" horiz-adv-x="296" d="M268 225Q257 225 241 222T208 210T177 188T159 152L116 -54Q101 -125 63 -158T-41 -191H-132L-113 -101H-54Q-35 -101 -23 -95T-2 -78T10 -55T17 -31L57 164Q64 194 80 214T114 245T152 262T183
269V271Q173 272 159 275T131 286T109 309T99 350Q99 358 99 365T102 382L142 571Q144 577 145 583T146 597Q146 614 138 627T100 641H41L60 731H151Q165 731 183 725T216 705T243 672T254 625Q254 610 251 594L214 420Q211 406 209 395T207 379Q207 360 216 348T237
328T264 318T287 315L268 225Z" />
<glyph unicode="~" glyph-name="asciitilde" horiz-adv-x="600" d="M531 254Q520 238 508 223T481 195T448 176T406 168Q378 168 354 177T304 201Q280 215 252 225T189 236Q172 236 160 230T137 214T119 192T105 168L69 252Q77 268 88 283T115 311T149 330T194
338Q220 338 248 329T305 306Q333 294 360 282T407 270Q422 270 434 276T457 292T477 314T495 338L531 254Z" />
</font>
</defs>
</svg>
