<?xml version="1.0" standalone="no"?> <!DOCTYPE svg PUBLIC "-//W3C//DTD SVG 1.0//EN" "http://www.w3.org/TR/2001/REC-SVG-20010904/DTD/svg10.dtd" > <svg xmlns="http://www.w3.org/2000/svg" width="100%" height="100%">
<defs >
<font id="Roboto-Italic" horiz-adv-x="1177" ><font-face
    font-family="Roboto"
    units-per-em="2048"
    panose-1="0 0 0 0 0 0 0 0 0 0"
    ascent="1900"
    descent="-500"
    alphabetic="0" />
<missing-glyph horiz-adv-x="509" />
<glyph unicode=" " glyph-name="space" horiz-adv-x="509" />
<glyph unicode="!" glyph-name="exclam" horiz-adv-x="539" d="M360 478H163L309 1456H506L360 478ZM289 0H91L122 204H320L289 0Z" />
<glyph unicode="&quot;" glyph-name="quotedbl" horiz-adv-x="733" d="M415 1186L279 936H182L217 1176L256 1456H453L415 1186ZM724 1186L588 936H491L526 1184L564 1456H762L724 1186Z" />
<glyph unicode="#" glyph-name="numbersign" horiz-adv-x="1276" d="M694 410H439L297 0H146L288 410H52L73 550H336L457 898H201L222 1040H506L650 1456H801L657 1040H912L1056 1456H1207L1063 1040H1262L1241 898H1014L894 550H1114L1093 410H845L704 0H552L694
410ZM487 550H742L863 898H608L487 550Z" />
<glyph unicode="$" glyph-name="dollar" horiz-adv-x="1193" d="M843 376Q855 469 802 531T606 643Q413 704 324 806T259 1078Q282 1249 391 1351T670 1473L701 1693H859L828 1471Q987 1447 1065 1332T1118 1026H922Q940 1157 889 1234T725 1311Q612 1311 542
1249T456 1081Q442 981 494 923T698 810Q894 744 978 646T1040 378Q1015 200 899 101T598 -16L572 -208H415L441 -17Q276 2 179 111T111 429H308Q285 269 353 207T536 144Q660 144 744 206T843 376Z" />
<glyph unicode="%" glyph-name="percent" horiz-adv-x="1498" d="M200 1176Q219 1308 314 1392T547 1477Q679 1477 750 1390T802 1176L791 1099Q771 967 678 884T447 800Q314 800 242 887T189 1099L200 1176ZM335 1099Q323 1022 356 972T465 922Q535 922 584 974T645
1099L656 1176Q667 1253 635 1304T528 1355Q456 1355 407 1302T346 1176L335 1099ZM783 357Q802 488 896 572T1129 657Q1260 657 1331 570T1385 357L1373 279Q1353 147 1259 63T1029 -21Q896 -21 824 66T771 279L783 357ZM917 279Q905 201 937 151T1047 101Q1117
101 1166 153T1227 279L1239 357Q1250 434 1217 484T1110 535Q1038 535 989 482T929 357L917 279ZM395 110L296 177L1177 1315L1276 1248L395 110Z" />
<glyph unicode="&amp;" glyph-name="ampersand" horiz-adv-x="1276" d="M43 392Q61 518 144 607T384 789Q320 886 294 964T280 1125Q306 1300 416 1388T699 1477Q850 1477 938 1385T1008 1167Q992 1065 931 997T753 851L632 771L909 364Q961 430 995 508T1044
673H1220Q1199 536 1144 426T1001 228L1157 0H921L851 102Q761 42 660 11T455 -21Q246 -21 131 95T43 392ZM478 133Q548 133 621 158T764 230L470 663L426 634Q325 565 286 503T240 392Q222 275 282 204T478 133ZM477 1127Q469 1072 487 1016T550 891L702 986Q765
1025 792 1069T827 1167Q836 1231 795 1276T675 1322Q597 1322 543 1265T477 1127Z" />
<glyph unicode="&apos;" glyph-name="quotesingle" horiz-adv-x="445" d="M422 1233L281 951H184L222 1216L256 1456H453L422 1233Z" />
<glyph unicode="(" glyph-name="parenleft" horiz-adv-x="679" d="M140 591Q197 1002 391 1271T779 1636L785 1635L807 1519Q655 1412 520 1176T337 593L335 580Q284 218 351 -9T544 -355L491 -463H485Q323 -370 203 -92T138 582L140 591Z" />
<glyph unicode=")" glyph-name="parenright" horiz-adv-x="687" d="M549 582Q491 170 297 -99T-90 -463L-96 -462L-119 -355Q31 -250 167 -10T352 580L354 593Q404 950 333 1182T145 1528L198 1636H204Q365 1543 485 1264T551 591L549 582Z" />
<glyph unicode="*" glyph-name="asterisk" horiz-adv-x="884" d="M348 696L122 763L195 917L417 827L445 1081H606L557 821L804 910L828 754L576 686L699 486L553 390L445 608L279 398L160 490L348 696Z" />
<glyph unicode="+" glyph-name="plus" horiz-adv-x="1162" d="M714 783H1113L1087 605H688L619 146H422L491 605H89L115 783H517L581 1206H778L714 783Z" />
<glyph unicode="," glyph-name="comma" horiz-adv-x="404" d="M242 48L46 -258H-71L47 58L71 221H268L242 48Z" />
<glyph unicode="-" glyph-name="hyphen" horiz-adv-x="923" d="M758 538H168L191 692H781L758 538Z" />
<glyph unicode="." glyph-name="period" horiz-adv-x="548" d="M278 0H81L111 202H308L278 0Z" />
<glyph unicode="/" glyph-name="slash" horiz-adv-x="850" d="M85 -125H-83L762 1456H929L85 -125Z" />
<glyph unicode="0" glyph-name="zero" horiz-adv-x="1153" d="M1037 514Q998 258 853 119T494 -21Q291 -21 182 124T110 514L174 942Q212 1196 358 1336T717 1477Q921 1477 1029 1331T1101 942L1037 514ZM910 983Q934 1146 878 1234T693 1322Q572 1322 487 1230T377
983L301 474Q276 311 332 222T517 133Q639 133 724 225T834 474L910 983Z" />
<glyph unicode="1" glyph-name="one" horiz-adv-x="1153" d="M630 0H432L623 1274L306 1271L328 1423L852 1477L630 0Z" />
<glyph unicode="2" glyph-name="two" horiz-adv-x="1153" d="M979 0H75L94 135L627 680Q770 828 825 915T894 1092Q908 1197 859 1259T704 1322Q580 1322 499 1242T401 1046H212L210 1052Q231 1237 371 1357T726 1477Q914 1477 1014 1368T1091 1090Q1073 969 997
864T763 589L337 160L339 154H1001L979 0Z" />
<glyph unicode="3" glyph-name="three" horiz-adv-x="1153" d="M461 828H623Q749 828 816 894T902 1077Q919 1191 870 1256T702 1322Q592 1322 505 1251T402 1075H214L212 1081Q233 1251 378 1364T726 1477Q921 1477 1024 1374T1098 1073Q1082 966 1016 883T846
754Q948 708 993 619T1020 406Q988 198 847 89T501 -21Q322 -21 194 89T97 378L99 384H288Q271 274 336 204T524 133Q639 133 721 208T822 402Q843 544 790 609T600 675H438L443 707L456 795L461 828Z" />
<glyph unicode="4" glyph-name="four" horiz-adv-x="1153" d="M886 490H1088L1064 336H863L813 0H617L667 336H42L59 447L823 1456H1031L886 490ZM277 490H690L792 1170L787 1172L761 1124L277 490Z" />
<glyph unicode="5" glyph-name="five" horiz-adv-x="1153" d="M192 647L397 1456H1126L1100 1281H537L427 862Q479 897 539 919T673 943Q875 945 970 817T1033 464Q998 237 863 108T500 -21Q321 -21 211 80T133 378L135 383H314Q295 260 353 197T523 133Q643 133
727 222T835 462Q856 606 800 689T619 773Q508 773 448 737T353 630L192 647Z" />
<glyph unicode="6" glyph-name="six" horiz-adv-x="1153" d="M783 1477Q865 1477 949 1460T1083 1417L1018 1266Q965 1291 904 1306T759 1322Q627 1322 521 1204T389 909L373 800Q443 860 531 893T716 927Q896 927 990 800T1055 470Q1019 238 879 109T528 -21Q333
-21 217 133T140 552L190 887Q230 1153 398 1315T783 1477ZM631 780Q540 780 467 739T347 629L333 533Q304 341 368 237T551 133Q669 133 752 227T858 470Q879 617 821 698T631 780Z" />
<glyph unicode="7" glyph-name="seven" horiz-adv-x="1153" d="M1178 1301Q853 973 719 722T537 159L513 0H316L340 159Q391 503 548 757T984 1301H212L235 1456H1201L1178 1301Z" />
<glyph unicode="8" glyph-name="eight" horiz-adv-x="1153" d="M1093 1084Q1074 965 998 879T809 752Q924 706 985 613T1030 400Q998 191 854 85T504 -21Q297 -21 174 90T82 400Q101 529 191 622T420 757Q316 801 263 887T226 1084Q255 1282 391 1379T727 1477Q906
1477 1013 1375T1093 1084ZM835 404Q853 527 788 602T607 677Q488 677 393 600T280 404Q260 277 329 205T527 133Q637 133 726 208T835 404ZM895 1081Q911 1190 856 1256T703 1322Q600 1322 519 1256T422 1081Q405 966 464 899T632 832Q725 832 801 901T895 1081Z"
/>
<glyph unicode="9" glyph-name="nine" horiz-adv-x="1153" d="M441 133Q578 133 682 232T814 509L831 626Q773 557 697 523T535 489Q333 489 229 620T160 978Q194 1207 340 1342T676 1477Q886 1477 1001 1339T1079 953L1013 511Q974 250 812 115T418 -21Q344 -21
264 -5T119 42L172 192Q234 160 295 147T441 133ZM558 643Q657 643 736 691T859 813L885 982Q910 1152 851 1237T658 1322Q555 1322 467 1226T357 978Q333 822 384 733T558 643Z" />
<glyph unicode=":" glyph-name="colon" horiz-adv-x="517" d="M278 0H81L111 202H308L278 0ZM409 876H212L242 1078H439L409 876Z" />
<glyph unicode=";" glyph-name="semicolon" horiz-adv-x="525" d="M410 876H213L243 1078H440L410 876ZM293 48L97 -258H-20L98 58L122 221H319L293 48Z" />
<glyph unicode="&lt;" glyph-name="less" horiz-adv-x="1040" d="M335 579L247 561V555L328 536L853 308L823 107L64 486L80 594L86 635L959 1013L929 812L335 579Z" />
<glyph unicode="=" glyph-name="equal" horiz-adv-x="1153" d="M1029 823H195L220 987H1054L1029 823ZM967 407H133L158 571H992L967 407Z" />
<glyph unicode="&gt;" glyph-name="greater" horiz-adv-x="1072" d="M176 798L205 993L1004 615L998 575L988 506L982 466L69 87L98 283L732 521L820 539V545L739 564L176 798Z" />
<glyph unicode="?" glyph-name="question" horiz-adv-x="974" d="M337 410Q360 556 392 611T540 759Q656 875 707 938T773 1091Q789 1201 742 1256T588 1311Q500 1311 427 1261T339 1116H151L149 1122Q171 1283 302 1380T613 1477Q802 1477 899 1376T970 1096Q950
961 867 860T645 641Q583 587 565 544T534 410H337ZM479 0H273L304 208H510L479 0Z" />
<glyph unicode="@" glyph-name="at" horiz-adv-x="1833" d="M1727 502Q1686 288 1552 134T1197 -21Q1127 -21 1079 21T1019 139Q957 58 879 19T705 -21Q584 -21 532 100T525 416Q588 676 725 832T1028 988Q1128 988 1191 961T1320 882L1316 878H1322L1183 293Q1157
183 1181 142T1257 100Q1375 100 1468 215T1596 502Q1670 884 1542 1097T1078 1311Q782 1311 554 1078T255 478Q181 102 316 -116T765 -335Q850 -335 945 -314T1107 -257L1129 -364Q1056 -406 949 -429T743 -453Q377 -453 201 -201T106 478Q188 901 458 1166T1100
1431Q1465 1431 1636 1179T1727 502ZM702 416Q670 274 691 200T787 126Q849 126 907 151T1018 240Q1019 253 1021 266T1028 293L1156 831Q1131 843 1104 850T1046 857Q926 857 841 746T702 416Z" />
<glyph unicode="A" glyph-name="A" horiz-adv-x="1295" d="M899 375H350L164 0H-37L706 1456H875L1171 0H970L899 375ZM432 540H867L749 1165L743 1166L432 540Z" />
<glyph unicode="B" glyph-name="B" horiz-adv-x="1302" d="M90 0L308 1456H783Q1002 1456 1120 1357T1210 1062Q1195 965 1127 891T957 779Q1096 758 1163 655T1211 411Q1179 203 1036 102T667 0H90ZM389 683L310 154H690Q820 154 907 221T1012 409Q1030 534 966
606T772 683H759H389ZM412 837H732Q838 837 918 898T1014 1066Q1032 1188 967 1244T760 1301H482L412 837Z" />
<glyph unicode="C" glyph-name="C" horiz-adv-x="1297" d="M1198 466L1200 460Q1172 247 1005 113T593 -21Q356 -21 222 155T128 598L167 857Q208 1136 388 1306T818 1477Q1056 1477 1186 1345T1281 997L1278 991H1089Q1112 1150 1036 1236T794 1322Q636 1322
515 1188T364 859L325 598Q293 391 371 262T616 133Q774 133 880 222T1010 466H1198Z" />
<glyph unicode="D" glyph-name="D" horiz-adv-x="1387" d="M90 0L308 1456H766Q1041 1456 1193 1279T1304 827L1274 628Q1230 339 1034 170T548 0H90ZM482 1301L310 154H571Q765 154 905 288T1077 628L1107 829Q1139 1042 1043 1171T743 1301H482Z" />
<glyph unicode="E" glyph-name="E" horiz-adv-x="1130" d="M986 675H388L310 154H1010L987 0H90L308 1456H1194L1171 1301H481L411 830H1010L986 675Z" />
<glyph unicode="F" glyph-name="F" horiz-adv-x="1130" d="M998 644H383L287 0H90L308 1456H1221L1198 1301H482L406 799H1021L998 644Z" />
<glyph unicode="G" glyph-name="G" horiz-adv-x="1387" d="M1166 196Q1102 115 963 47T620 -21Q377 -21 233 147T128 578L173 878Q214 1153 396 1315T832 1477Q1065 1477 1191 1346T1284 1018L1281 1012H1092Q1112 1149 1040 1235T808 1322Q648 1322 524 1196T371
880L326 578Q295 377 384 255T643 133Q766 133 850 167T977 246L1026 574H696L719 728H1246L1166 196Z" />
<glyph unicode="H" glyph-name="H" horiz-adv-x="1441" d="M1191 0H994L1090 643H383L287 0H90L308 1456H505L406 798H1113L1212 1456H1409L1191 0Z" />
<glyph unicode="I" glyph-name="I" horiz-adv-x="579" d="M308 0H110L328 1456H526L308 0Z" />
<glyph unicode="J" glyph-name="J" horiz-adv-x="1123" d="M897 1456H1094L939 422Q907 211 768 95T429 -21Q236 -21 130 86T58 396L60 401H250Q229 260 281 197T452 133Q557 133 639 212T742 422L897 1456Z" />
<glyph unicode="K" glyph-name="K" horiz-adv-x="1226" d="M485 658H368L270 0H73L291 1456H488L393 823H521L1066 1456H1308L1310 1451L655 727L1117 0H892L485 658Z" />
<glyph unicode="L" glyph-name="L" horiz-adv-x="1126" d="M310 154H1020L997 0H90L308 1456H505L310 154Z" />
<glyph unicode="M" glyph-name="M" horiz-adv-x="1779" d="M853 273L859 272L1501 1456H1746L1528 0H1331L1494 1090L1488 1092L884 0H747L462 1128H456L287 0H90L308 1456H567L853 273Z" />
<glyph unicode="N" glyph-name="N" horiz-adv-x="1442" d="M1191 0H994L459 1113L453 1112L287 0H90L308 1456H505L1040 344L1046 345L1212 1456H1409L1191 0Z" />
<glyph unicode="O" glyph-name="O" horiz-adv-x="1396" d="M1292 598Q1249 320 1060 150T604 -21Q358 -21 221 156T123 598L162 857Q203 1134 387 1305T829 1477Q1082 1477 1226 1299T1331 857L1292 598ZM1134 859Q1164 1066 1076 1190T804 1315Q639 1315 514
1186T359 859L320 598Q288 389 371 265T628 140Q804 140 934 269T1095 598L1134 859Z" />
<glyph unicode="P" glyph-name="P" horiz-adv-x="1302" d="M374 584L287 0H90L308 1456H865Q1089 1456 1204 1335T1292 1020Q1260 814 1116 699T735 584H374ZM397 738H758Q900 738 988 818T1094 1018Q1112 1143 1052 1222T842 1301H482L397 738Z" />
<glyph unicode="Q" glyph-name="Q" horiz-adv-x="1427" d="M1292 598Q1273 478 1225 376T1105 194L1288 -14L1134 -143L946 67Q870 23 784 1T604 -21Q358 -21 221 156T123 598L162 857Q203 1134 387 1305T829 1477Q1082 1477 1226 1299T1331 857L1292 598ZM1134
859Q1164 1066 1076 1190T804 1315Q639 1315 514 1186T359 859L320 598Q288 389 371 265T628 140Q804 140 934 269T1095 598L1134 859Z" />
<glyph unicode="R" glyph-name="R" horiz-adv-x="1303" d="M381 631L287 0H90L308 1455H806Q1036 1455 1150 1348T1235 1041Q1217 923 1146 842T954 713Q1065 673 1107 585T1131 371L1110 234Q1099 163 1106 111T1146 24L1142 0H939Q905 34 904 99T913 236L933
369Q951 492 894 561T719 631H381ZM404 786H686Q846 786 932 850T1038 1043Q1057 1170 997 1235T783 1301H482L404 786Z" />
<glyph unicode="S" glyph-name="S" horiz-adv-x="1243" d="M945 334Q961 446 894 515T638 646Q408 716 305 821T230 1120Q255 1290 393 1383T735 1477Q970 1477 1101 1358T1196 1032L1194 1026H1005Q1024 1157 944 1239T711 1322Q598 1322 519 1265T427 1122Q409
1001 469 940T731 810Q966 733 1068 631T1142 336Q1115 159 974 69T619 -21Q385 -21 227 87T107 423L110 429H298Q274 269 379 201T642 133Q757 133 844 189T945 334Z" />
<glyph unicode="T" glyph-name="T" horiz-adv-x="1225" d="M1303 1301H823L628 0H431L626 1301H152L175 1456H1326L1303 1301Z" />
<glyph unicode="U" glyph-name="U" horiz-adv-x="1386" d="M1382 1456L1237 489Q1200 240 1026 110T603 -21Q374 -21 239 115T140 489L285 1456H482L337 489Q311 315 392 224T626 133Q780 133 897 228T1040 489L1185 1456H1382Z" />
<glyph unicode="V" glyph-name="V" horiz-adv-x="1295" d="M589 382L604 262L610 261L661 382L1198 1456H1411L652 0H483L160 1456H374L589 382Z" />
<glyph unicode="W" glyph-name="W" horiz-adv-x="1763" d="M458 505L454 314L460 313L523 505L923 1456H1116L1234 505L1238 311L1244 310L1301 505L1651 1456H1865L1295 0H1119L980 1010L977 1140L971 1141L931 1010L484 0H308L175 1456H388L458 505Z" />
<glyph unicode="X" glyph-name="X" horiz-adv-x="1295" d="M703 888L1128 1456H1366L796 734L1158 0H923L661 578L224 0H-14L568 734L214 1456H450L703 888Z" />
<glyph unicode="Y" glyph-name="Y" horiz-adv-x="1295" d="M673 716L1163 1456H1388L736 512L659 0H463L542 527L178 1456H403L673 716Z" />
<glyph unicode="Z" glyph-name="Z" horiz-adv-x="1145" d="M269 154H1009L986 0H41L43 146L859 1301H193L216 1456H1110L1089 1315L269 154Z" />
<glyph unicode="[" glyph-name="bracketleft" horiz-adv-x="552" d="M664 1509H476L243 -157H431L409 -312H24L301 1664H686L664 1509Z" />
<glyph unicode="\" glyph-name="backslash" horiz-adv-x="846" d="M177 1456H363L734 -125H548L177 1456Z" />
<glyph unicode="]" glyph-name="bracketright" horiz-adv-x="552" d="M169 1664H555L278 -312H-108L-86 -157H103L336 1509H147L169 1664Z" />
<glyph unicode="^" glyph-name="asciicircum" horiz-adv-x="856" d="M273 729H90L498 1456H632L821 729H640L537 1148L532 1217L526 1218L499 1148L273 729Z" />
<glyph unicode="_" glyph-name="underscore" horiz-adv-x="931" d="M824 -154H-99L-76 0H847L824 -154Z" />
<glyph unicode="`" glyph-name="grave" horiz-adv-x="641" d="M590 1252H432L219 1513L222 1518H453L590 1252Z" />
<glyph unicode="a" glyph-name="a" horiz-adv-x="1126" d="M728 0Q726 56 726 90T730 161Q663 84 567 32T369 -21Q206 -21 128 66T72 304Q95 464 232 549T587 634H801L817 741Q832 840 783 893T626 947Q535 947 466 899T388 784L200 782L199 788Q211 911 342 1006T660
1102Q837 1102 938 1008T1014 739L936 218Q926 157 925 105T931 0H728ZM423 144Q525 144 621 200T754 326L781 501H560Q445 501 362 440T268 300Q256 225 294 185T423 144Z" />
<glyph unicode="b" glyph-name="b" horiz-adv-x="1164" d="M1062 500Q1025 257 893 118T562 -21Q457 -21 384 23T270 152L214 0H63L297 1560H494L403 954Q466 1026 547 1064T728 1102Q920 1102 1011 941T1065 521L1062 500ZM868 521Q897 714 846 828T654 942Q566
942 496 897T376 774L306 308Q332 228 387 184T536 139Q670 139 755 239T865 500L868 521Z" />
<glyph unicode="c" glyph-name="c" horiz-adv-x="1072" d="M513 133Q600 133 678 194T771 342H949L951 336Q933 190 795 85T490 -21Q272 -21 167 135T95 520L101 562Q137 799 283 950T658 1102Q833 1102 935 989T1008 714L1006 709H826Q841 812 788 879T635 947Q496
947 409 833T299 562L293 520Q267 352 316 243T513 133Z" />
<glyph unicode="d" glyph-name="d" horiz-adv-x="1164" d="M96 521Q136 792 270 947T607 1102Q700 1102 768 1065T880 958L970 1560H1167L933 0H782L773 137Q708 59 624 19T437 -21Q246 -21 152 124T93 500L96 521ZM290 500Q264 331 316 235T511 139Q596 139 663
180T780 294L855 795Q827 863 773 902T633 942Q497 942 409 824T293 521L290 500Z" />
<glyph unicode="e" glyph-name="e" horiz-adv-x="1072" d="M508 -21Q284 -21 172 130T95 520L102 564Q137 806 292 954T645 1102Q854 1102 946 965T1005 608L990 504H290Q267 332 324 233T531 133Q627 133 709 162T852 240L910 112Q844 56 743 18T508 -21ZM622
947Q523 947 443 867T327 665L329 659H816L818 675Q836 796 790 871T622 947Z" />
<glyph unicode="f" glyph-name="f" horiz-adv-x="674" d="M145 0L285 936H116L138 1082H307L328 1219Q355 1399 458 1490T725 1581Q758 1581 793 1575T867 1560L821 1410Q803 1414 778 1417T725 1420Q642 1420 591 1368T525 1219L504 1082H700L678 936H482L342 0H145Z" />
<glyph unicode="g" glyph-name="g" horiz-adv-x="1164" d="M106 521Q146 792 280 947T616 1102Q717 1102 789 1059T903 935L949 1082H1106L943 -6Q910 -222 775 -329T408 -437Q333 -437 244 -415T92 -357L145 -204Q198 -234 275 -252T431 -271Q569 -271 647 -205T746
-6L764 117Q701 49 622 14T446 -21Q256 -21 162 124T103 500L106 521ZM300 500Q274 331 326 235T520 139Q606 139 673 180T791 297L866 792Q837 861 783 901T642 942Q507 942 419 823T303 521L300 500Z" />
<glyph unicode="h" glyph-name="h" horiz-adv-x="1164" d="M401 943Q469 1019 556 1060T743 1102Q910 1102 993 997T1046 678L944 0H747L849 680Q870 818 822 880T659 942Q574 942 503 906T381 806L260 0H63L297 1560H494L401 943Z" />
<glyph unicode="i" glyph-name="i" horiz-adv-x="516" d="M276 0H79L241 1082H438L276 0ZM480 1359H283L313 1560H510L480 1359Z" />
<glyph unicode="j" glyph-name="j" horiz-adv-x="530" d="M452 1082L277 -89Q250 -262 152 -349T-101 -437Q-130 -437 -156 -433T-209 -419L-172 -264Q-159 -269 -133 -272T-90 -276Q-26 -276 19 -232T80 -89L255 1082H452ZM488 1363H291L321 1560H518L488 1363Z" />
<glyph unicode="k" glyph-name="k" horiz-adv-x="1050" d="M438 499H336L261 0H64L298 1560H495L359 656H458L847 1082H1075L1078 1076L616 583L955 0H722L438 499Z" />
<glyph unicode="l" glyph-name="l" horiz-adv-x="516" d="M276 0H79L313 1560H510L276 0Z" />
<glyph unicode="m" glyph-name="m" horiz-adv-x="1790" d="M394 945Q458 1021 545 1061T742 1102Q845 1102 916 1052T1012 903Q1076 996 1168 1049T1375 1102Q1534 1102 1615 988T1664 647L1567 0H1370L1467 649Q1492 815 1448 878T1292 942Q1195 942 1121 871T1018
694Q1017 692 1017 691T1017 687L914 0H716L813 649Q837 807 792 874T638 942Q550 942 486 903T379 793L260 0H63L225 1082H401L394 945Z" />
<glyph unicode="n" glyph-name="n" horiz-adv-x="1164" d="M392 927Q458 1011 546 1056T739 1102Q908 1102 991 999T1043 683L941 0H744L846 679Q868 827 821 884T656 942Q568 942 498 904T380 797L260 0H63L225 1082H401L392 927Z" />
<glyph unicode="o" glyph-name="o" horiz-adv-x="1164" d="M100 551Q137 800 288 951T665 1102Q881 1102 992 946T1069 551L1065 529Q1027 278 876 129T499 -21Q283 -21 172 135T96 529L100 551ZM293 529Q266 351 322 242T522 133Q657 133 749 246T868 529L872
551Q898 727 842 837T642 947Q506 947 414 833T297 551L293 529Z" />
<glyph unicode="p" glyph-name="p" horiz-adv-x="1164" d="M1060 500Q1023 257 892 118T561 -21Q464 -21 393 14T278 119L198 -416H1L225 1082H376L386 942Q451 1020 536 1061T726 1102Q919 1102 1010 941T1063 521L1060 500ZM866 521Q895 712 840 827T643 942Q561
942 495 903T379 795L301 275Q329 208 383 171T524 133Q658 133 748 236T863 500L866 521Z" />
<glyph unicode="q" glyph-name="q" horiz-adv-x="1164" d="M96 521Q136 792 270 947T607 1102Q703 1102 772 1063T884 950L933 1082H1084L860 -416H663L740 102Q680 41 604 10T437 -21Q246 -21 152 124T93 500L96 521ZM290 500Q264 330 316 232T510 133Q588 133
652 170T766 274L847 816Q818 877 765 912T634 947Q498 947 409 826T293 521L290 500Z" />
<glyph unicode="r" glyph-name="r" horiz-adv-x="717" d="M711 908L611 914Q534 914 475 876T375 767L260 0H63L225 1082H401L397 929Q455 1011 529 1056T692 1102Q713 1102 733 1099T766 1091L711 908Z" />
<glyph unicode="s" glyph-name="s" horiz-adv-x="1071" d="M738 291Q747 358 704 398T526 469Q340 510 248 584T173 782Q192 920 316 1011T622 1102Q798 1102 902 1001T983 769L981 763H792Q802 835 749 891T601 947Q501 947 441 900T371 788Q362 722 401 688T577
625Q770 583 862 506T937 305Q916 156 788 68T470 -21Q272 -21 164 85T80 329L82 335H271Q262 230 328 182T492 133Q593 133 660 178T738 291Z" />
<glyph unicode="t" glyph-name="t" horiz-adv-x="690" d="M538 1343L499 1082H704L682 936H477L379 279Q367 200 393 171T473 141Q489 141 511 145T548 155L555 20Q530 2 486 -9T399 -21Q283 -21 221 52T182 279L280 936H108L130 1082H302L341 1343H538Z" />
<glyph unicode="u" glyph-name="u" horiz-adv-x="1164" d="M763 0L774 155Q710 69 624 24T431 -21Q260 -21 175 93T126 444L221 1082H418L322 442Q295 263 336 201T487 139Q590 139 666 183T790 309L905 1082H1102L940 0H763Z" />
<glyph unicode="v" glyph-name="v" horiz-adv-x="1030" d="M472 319L478 243L484 242L514 319L877 1082H1078L518 0H369L128 1082H330L472 319Z" />
<glyph unicode="w" glyph-name="w" horiz-adv-x="1550" d="M399 394L403 256L408 255L456 394L775 1082H933L1047 394L1052 239L1058 238L1113 394L1376 1082H1582L1106 0H947L832 659L817 830L811 831L747 659L438 0H279L127 1082H332L399 394Z" />
<glyph unicode="x" glyph-name="x" horiz-adv-x="1030" d="M532 683L822 1082H1045L1048 1077L621 547L900 0H674L495 409L194 0H-27L-30 5L409 547L138 1082H365L532 683Z" />
<glyph unicode="y" glyph-name="y" horiz-adv-x="1030" d="M454 401L469 265L475 264L863 1082H1082L440 -166Q382 -275 294 -356T75 -437Q52 -437 16 -432T-40 -421L3 -266Q0 -265 39 -268T90 -271Q150 -271 201 -213T287 -91L352 22L108 1082H328L454 401Z" />
<glyph unicode="z" glyph-name="z" horiz-adv-x="1030" d="M277 159L279 154H897L874 0H14L35 138L733 921L731 926H160L183 1082H1002L982 948L277 159Z" />
<glyph unicode="{" glyph-name="braceleft" horiz-adv-x="696" d="M505 -364Q318 -309 253 -189T211 101L240 306Q256 422 214 482T64 543L67 566L81 667L85 690Q187 690 248 752T327 926L355 1132Q379 1309 477 1425T780 1597L803 1480Q688 1445 629 1355T552
1132L524 926Q508 817 455 737T309 613Q386 566 418 486T437 306L408 101Q388 -35 422 -122T562 -246L505 -364Z" />
<glyph unicode="|" glyph-name="bar" horiz-adv-x="507" d="M222 -270H25L283 1456H480L222 -270Z" />
<glyph unicode="}" glyph-name="braceright" horiz-adv-x="696" d="M-88 -246Q26 -210 85 -121T163 101L192 306Q207 418 263 497T420 618Q334 661 299 741T279 926L307 1132Q326 1268 292 1356T153 1480L211 1597Q397 1542 462 1423T504 1132L476 926Q459 809
501 750T652 690L636 575H635L631 543Q527 543 466 480T389 306L360 101Q334 -75 237 -192T-64 -364L-88 -246Z" />
<glyph unicode="~" glyph-name="asciitilde" horiz-adv-x="1391" d="M1286 741L1288 735Q1271 596 1172 499T941 401Q855 401 784 434T639 541Q586 589 541 613T445 637Q380 637 324 584T258 456L126 473L124 479Q140 616 237 709T468 803Q552 803 625 768T772
664Q824 613 868 590T964 567Q1028 567 1085 624T1154 758L1286 741Z" />
</font>
</defs>
</svg>
